Приговорённые 2: Охота в пустыне / The Condemned 2 (2015) BDRip 720p | iTunes

 
Автор Сообщение

достали все ®

Пол:

Стаж: 1 год 8 месяцев

Сообщений: 6581



Награды: 12 (Подробнее)

За внесенный вклад в развитие сайта (Количество: 1) Mega Releaser 2 (Количество: 1) Mega Seeder 2 (Количество: 1)
Торрент-статистика

Создавать темы 20-Янв-2016 05:23

[Цитировать]

Информация о фильме
Название: Приговорённые 2: Охота в пустыне
Оригинальное название: The Condemned 2
Год выхода: 2015
Жанр: боевик
Режиссер: Роэль Рейн
В ролях: Уэс Стьюди, Стивен Майкл Квезада, Рэнди Ортон, Дилан Кенин, Моник Канделария, Майкл Шитс, Мартин Палмер, Стэффорд Дуглас, Алекс Найт, Марк Сивертсен
О фильме: Уилл Таннер из тех, кто выбрал для себя «профессию» охотников за головами. Однажды он попадает в серьезные неприятности, задержан полицией и получает приговор. Его и бывшую его команду вовлекают в игру на выживание под объективами камер в угоду интересам благополучной публики. Ставки сделаны, приговоренные должны проявить в жестких обстоятельствах максимум своих способностей сражаться и избегать ловушек, выносливость и изобретательность. Песчаный ад может дать шанс жить дальше…

Выпущено: США / WWE Studios
Продолжительность: 01:30:14
Озвучивание: Дублированное [iTunes]
Файл
Формат: MKV (x264)
Качество: BDRip 720p
Видео: 7412 kb/s, 1280x720
Звук: Russian: AC3, 384 kb/s (6 ch) / English: AC3, 640 kb/s (6 ch)
Субтитры: English

МедиаИнфо

Format : Matroska
Format version : Version 4 / Version 2
File size : 5.46 GiB
Duration : 1h 30mn
Overall bit rate : 8 608 Kbps
Movie name : aldershot
Encoded date : UTC 2016-01-19 18:45:40
Writing application : mkvmerge v6.9.1 ('Blue Panther') 64bit built on Apr 18 2014 18:23:38
Writing library : libebml v1.3.0 + libmatroska v1.4.1
Video
ID : 1
Format : AVC
Format/Info : Advanced Video Codec
Format profile : High@L4.1
Format settings, CABAC : Yes
Format settings, ReFrames : 5 frames
Codec ID : V_MPEG4/ISO/AVC
Duration : 1h 30mn
Bit rate : 7 412 Kbps
Width : 1 280 pixels
Height : 720 pixels
Display aspect ratio : 16:9
Frame rate mode : Constant
Frame rate : 23.976 fps
Color space : YUV
Chroma subsampling : 4:2:0
Bit depth : 8 bits
Scan type : Progressive
Bits/(Pixel*Frame) : 0.335
Stream size : 4.70 GiB (86%)
Writing library : x264 core 148 r2638kMod 7599210
Encoding settings : cabac=1 / ref=5 / deblock=1:-3:-3 / analyse=0x3:0x113 / me=umh / subme=11 / psy=1 / fade_compensate=0.00 / psy_rd=1.02:0.03 / mixed_ref=1 / me_range=32 / chroma_me=1 / trellis=2 / 8x8dct=1 / cqm=0 / deadzone=21,11 / fast_pskip=1 / chroma_qp_offset=-3 / threads=12 / lookahead_threads=2 / sliced_threads=0 / nr=0 / decimate=1 / interlaced=0 / bluray_compat=0 / constrained_intra=0 / fgo=0 / bframes=8 / b_pyramid=2 / b_adapt=2 / b_bias=0 / direct=3 / weightb=1 / open_gop=0 / weightp=2 / keyint=240 / keyint_min=22 / scenecut=40 / intra_refresh=0 / rc_lookahead=50 / rc=crf / mbtree=0 / crf=17.5000 / qcomp=0.70 / qpmin=0 / qpmax=69 / qpstep=4 / vbv_maxrate=62500 / vbv_bufsize=78125 / crf_max=0.0 / nal_hrd=none / filler=0 / ip_ratio=1.40 / pb_ratio=1.30 / aq=2:0.86
Language : English
Default : Yes
Forced : No
Audio #1
ID : 2
Format : AC-3
Format/Info : Audio Coding 3
Mode extension : CM (complete main)
Format settings, Endianness : Big
Codec ID : A_AC3
Duration : 1h 30mn
Bit rate mode : Constant
Bit rate : 384 Kbps
Channel(s) : 6 channels
Channel positions : Front: L C R, Side: L R, LFE
Sampling rate : 48.0 KHz
Bit depth : 16 bits
Compression mode : Lossy
Stream size : 249 MiB (4%)
Title : AC3 5.1 @ 384 Kbps, Дубляж, iTunes
Language : Russian
Default : Yes
Forced : No
Audio #2
ID : 3
Format : AC-3
Format/Info : Audio Coding 3
Mode extension : CM (complete main)
Format settings, Endianness : Big
Codec ID : A_AC3
Duration : 1h 30mn
Bit rate mode : Constant
Bit rate : 640 Kbps
Channel(s) : 6 channels
Channel positions : Front: L C R, Side: L R, LFE
Sampling rate : 48.0 KHz
Bit depth : 16 bits
Compression mode : Lossy
Stream size : 415 MiB (7%)
Title : AC3 5.1 @ 640 Kbps, Original
Language : English
Default : No
Forced : No
Text #1
ID : 4
Format : UTF-8
Codec ID : S_TEXT/UTF8
Codec ID/Info : UTF-8 Plain Text
Title : full
Language : English
Default : No
Forced : No
Text #2
ID : 5
Format : UTF-8
Codec ID : S_TEXT/UTF8
Codec ID/Info : UTF-8 Plain Text
Title : SDH
Language : English
Default : Yes
Forced : No
Menu
00:00:00.000 : en:00:00:00.000
00:05:10.268 : en:00:05:10.268
00:10:51.693 : en:00:10:51.693
00:16:40.958 : en:00:16:40.958
00:24:10.824 : en:00:24:10.824
00:29:33.063 : en:00:29:33.063
00:35:30.712 : en:00:35:30.712
00:40:32.096 : en:00:40:32.096
00:46:27.910 : en:00:46:27.910
00:50:58.847 : en:00:50:58.847
00:58:51.236 : en:00:58:51.236
01:05:29.134 : en:01:05:29.134
01:09:39.634 : en:01:09:39.634
01:13:52.803 : en:01:13:52.803
01:18:19.862 : en:01:18:19.862
01:23:30.255 : en:01:23:30.255

Скриншоты

[Профиль] [ЛС]
Показать сообщения:    

Текущее время: Сегодня 14:24

Часовой пояс: GMT



Вы не можете начинать темы
Вы не можете отвечать на сообщения
Вы не можете редактировать свои сообщения
Вы не можете удалять свои сообщения
Вы не можете голосовать в опросах
Вы не можете прикреплять файлы к сообщениям
Вы не можете скачивать файлы