Приговорённые 2: Охота в пустыне / The Condemned 2: Desert Prey (2015) WEB-DL 720p | L1

 
Автор Сообщение

достали все ®

Пол:

Стаж: 1 год 8 месяцев

Сообщений: 6571



Награды: 12 (Подробнее)

За внесенный вклад в развитие сайта (Количество: 1) Top Releaser 3 (Количество: 1) Top Releaser 4 (Количество: 1)
Торрент-статистика

Создавать темы 27-Ноя-2015 04:12

[Цитировать]

Информация о фильме
Название: Приговорённые 2: Охота в пустыне
Оригинальное название: The Condemned 2: Desert Prey
Год выхода: 2015
Жанр: боевик
Режиссер: Роэль Рейн
В ролях: Уэс Стьюди, Стивен Майкл Квезада, Рэнди Ортон, Дилан Кенин, Моник Канделария, Майкл Шитс, Мартин Палмер, Стэффорд Дуглас, Алекс Найт, Марк Сивертсен
О фильме: Уилл Таннер из тех, кто выбрал для себя «профессию» охотников за головами. Однажды он попадает в серьезные неприятности, задержан полицией и получает приговор. Его и бывшую его команду вовлекают в игру на выживание под объективами камер в угоду интересам благополучной публики. Ставки сделаны, приговоренные должны проявить в жестких обстоятельствах максимум своих способностей сражаться и избегать ловушек, выносливость и изобретательность. Песчаный ад может дать шанс жить дальше…

Выпущено: США / WWE Studios
Продолжительность: 01:30:13
Озвучивание: Любительское (одноголосое) [Павел Морозов aka PashaUp], перевод [Enigma]
Файл
Формат: MKV
Качество: WEB-DL 720p
Видео: MPEG-4 AVC, 3911 kb/s, 1280x716
Аудио: Russian: AC3, 192 kb/s (2 ch) / English: AC3, 384 kb/s (6 ch)
Субтитры: English

MI

Format : Matroska
Format version : Version 2
File size : 2.89 GiB
Duration : 1h 30mn
Overall bit rate : 4 578 Kbps
Encoded date : UTC 2015-11-26 23:34:37
Writing application : mkvmerge v7.8.0 ('River Man') 32bit built on Apr 3 2015 12:11:22
Writing library : libebml v1.3.1 + libmatroska v1.4.2
Video
ID : 1
Format : AVC
Format/Info : Advanced Video Codec
Format profile : High@L3.1
Format settings, CABAC : No
Format settings, ReFrames : 2 frames
Codec ID : V_MPEG4/ISO/AVC
Duration : 1h 30mn
Bit rate : 3 911 Kbps
Width : 1 280 pixels
Height : 716 pixels
Display aspect ratio : 16:9
Frame rate mode : Constant
Frame rate : 23.976 fps
Color space : YUV
Chroma subsampling : 4:2:0
Bit depth : 8 bits
Scan type : Progressive
Bits/(Pixel*Frame) : 0.178
Stream size : 2.46 GiB (85%)
Language : English
Default : Yes
Forced : No
Color range : Limited
Color primaries : BT.709
Transfer characteristics : BT.709
Matrix coefficients : BT.709
Audio #1
ID : 2
Format : AC-3
Format/Info : Audio Coding 3
Mode extension : CM (complete main)
Format settings, Endianness : Big
Codec ID : A_AC3
Duration : 1h 30mn
Bit rate mode : Constant
Bit rate : 192 Kbps
Channel(s) : 2 channels
Channel positions : Front: L R
Sampling rate : 48.0 KHz
Bit depth : 16 bits
Compression mode : Lossy
Stream size : 124 MiB (4%)
Language : Russian
Default : Yes
Forced : No
Audio #2
ID : 3
Format : AC-3
Format/Info : Audio Coding 3
Mode extension : CM (complete main)
Format settings, Endianness : Big
Codec ID : A_AC3
Duration : 1h 30mn
Bit rate mode : Constant
Bit rate : 384 Kbps
Channel(s) : 6 channels
Channel positions : Front: L C R, Side: L R, LFE
Sampling rate : 48.0 KHz
Bit depth : 16 bits
Compression mode : Lossy
Stream size : 248 MiB (8%)
Language : English
Default : No
Forced : No
Text
ID : 4
Format : UTF-8
Codec ID : S_TEXT/UTF8
Codec ID/Info : UTF-8 Plain Text
Language : English
Default : No
Forced : No
Menu
00:00:00.000 : en:1
00:10:52.000 : en:2
00:20:41.000 : en:3
00:30:29.000 : en:4
00:41:34.000 : en:5
00:50:31.000 : en:6
00:58:35.000 : en:7
01:09:40.000 : en:8
01:23:30.000 : en:9

Скриншоты



[Профиль] [ЛС]
Показать сообщения:    

Текущее время: Сегодня 22:27

Часовой пояс: GMT



Вы не можете начинать темы
Вы не можете отвечать на сообщения
Вы не можете редактировать свои сообщения
Вы не можете удалять свои сообщения
Вы не можете голосовать в опросах
Вы не можете прикреплять файлы к сообщениям
Вы не можете скачивать файлы