Привет, Билл! / Знакомство с Биллом / Meet Bill (Берни Голдманн / Bernie Goldmann, Мелисса Уоллэк / Melissa Wallack) [2007, США, Комедия, драма, BDRip] Dub

 
Автор Сообщение

painkiller ®

Стаж: 2 года 3 месяца

Сообщений: 582



Награды: Нет

Торрент-статистика

Создавать темы 15-Авг-2014 10:18

[Цитировать]

Привет, Билл! / Знакомство с Биллом / Meet Bill- Год выпуска: 2007
Выпущено: США
Жанр: Комедия, драма
Продолжительность: 01:29:27
Перевод: Профессиональный (полное дублирование)
Субтитры: нет-Режиссер: Берни Голдманн / Bernie Goldmann, Мелисса Уоллэк / Melissa Wallack
В ролях: Аарон Экхарт, Джессика Альба, Элизабет Бэнкс, Тимоти Олифант, Логан Лерман, Мариса Кохлан, Ширли Бренер, Рид Даймонд, Крейг Бьерко
О фильме: Внезапно спокойная жизнь Билла превращается в ураган событий, который разрушает все, чего он добивался в своей жизни. Все начинается с того, что жена изменяет ему с известным телеведущим. Как следствие Билл теряет интерес к своей перспективной работе в банке. Кажется, что ничего нельзя изменить в лучшую сторону. Но Билл не сдается. Он решает принять участие в программе шефства над учениками в одной из местных школ. Там он знакомиться с импульсивным и упрямым подростком, который постепенно решает все его проблемы, такие как неуверенность в себе, депрессию и кризис среднего возраста.
Релиз:
Автор: kingsize87
Качество: BDRip (источник: / BD-Remux / 1080p)
Формат: AVI
Видео: 704x384 (1.83:1), 25 fps, XviD build 65 ~ 1864 kbps avg, 0.28 bit/pixel
Аудио: 48 kHz, AC3 Dolby Digital, 3/2 (L,C,R,l,r) + LFE ch, ~448.00 kbps avg
Размер: 1485.92 Mb (1/3 DVD-R)-

Кадры из фильма


-

Mi


Формат : AVI
Формат/Информация : Audio Video Interleave
Размер файла : 1,45 Гбайт
Продолжительность : 1 ч. 29 м.
Общий поток : 2322 Кбит/сек
Название фильма : Привет, Билл! / Meet Bill (2007) BDRip
Режиссёр : kingsize87
Программа кодирования : VirtualDubMod 1.5.10.2 (build 2540/release)
Правообладатель : HQCLUB
Примечание : 08.02.2014
Видео
Идентификатор : 0
Формат : MPEG-4 Visual
Профиль формата : Advanced Simple@L5
Параметр BVOP формата : 1
Параметр QPel формата : Нет
Параметр GMC формата : Без точки перехода
Параметр матрицы формата : Выборочная
Идентификатор кодека : XVID
Идентификатор кодека/Подсказка : XviD
Продолжительность : 1 ч. 29 м.
Битрейт : 1865 Кбит/сек
Ширина : 704 пикселя
Высота : 384 пикселя
Соотношение сторон : 1,85:1
Частота кадров : 25,000 кадров/сек
Цветовое пространство : YUV
Субдискретизация насыщенности : 4:2:0
Битовая глубина : 8 бит
Тип развёртки : Прогрессивная
Метод сжатия : С потерями
Бит/(Пиксели*Кадры) : 0.276
Размер потока : 1,17 Гбайт (80%)
Библиотека кодирования : XviD 65
Аудио
Идентификатор : 1
Формат : AC-3
Формат/Информация : Audio Coding 3
Расширение режима : CM (complete main)
Параметр Endianness формата : Big
Идентификатор кодека : 2000
Продолжительность : 1 ч. 29 м.
Вид битрейта : Постоянный
Битрейт : 448 Кбит/сек
Каналы : 6 каналов
Расположение каналов : Front: L C R, Side: L R, LFE
Частота : 48,0 КГц
Битовая глубина : 16 бит
Метод сжатия : С потерями
Размер потока : 287 Мбайт (19%)
Выравнивание : Разделение по промежуткам
Продолжительность промежутка : 40 мс. (1,00 видеокадр)
Время предзагрузки промежутка : 500 мс.
-
[Профиль] [ЛС]

Создавать темы 06-Авг-2015 23:10 (спустя 11 месяцев 22 дня)

Топик был перенесен из форума Фильмы до 2014 года в форум Фильмы до 2012 года
sergej644
 
Показать сообщения:    

Текущее время: Сегодня 10:33

Часовой пояс: GMT



Вы не можете начинать темы
Вы не можете отвечать на сообщения
Вы не можете редактировать свои сообщения
Вы не можете удалять свои сообщения
Вы не можете голосовать в опросах
Вы не можете прикреплять файлы к сообщениям
Вы не можете скачивать файлы