Преступные связи / Gang Related (1997) BDRip 1080p от HDReactor | P, A, L1

 
Автор Сообщение

Russian Mafia ®

Пол:

Стаж: 1 год 8 месяцев

Сообщений: 4256



Награды: 10 (Подробнее)

Top Releaser 5 (Количество: 1) Mega Seeder 1 (Количество: 1) Mega Seeder 3 (Количество: 1)
Торрент-статистика

Создавать темы 23-Июл-2016 05:53

[Цитировать]

Информация о фильме
Название: Преступные связи
Оригинальное название: Gang Related
Год выпуска: 1997
Жанр: боевик, триллер, драма, мелодрама, криминал
Выпущено: США, Kouf-Bigelow Productions, Orion Pictures Corporation
Режиссер: Джим Кауф
В ролях: Тупак Шакур, Джеймс Белуши, Лила Рошон, Дэннис Куэйд, Джеймс Эрл Джонс, Дэвид Пэймер, Венди Крюсон, Гэри Коул, Терренс Карсон, Роберт ЛаСардо, Грег Камминс, Брэд Гринквист, Джеймс Хэнди, Кул Мо Ди, Перри Анзилотти, Виктор Лав, Том ’Тайни’ Листер мл., Катеро Колберт, Стив Уилкокс, Александр Фолк, Дуглас Беннетт, Дэвид Вайзенберг, Крис Хендри, Терренс Эллис, Дебора Реннард
О фильме: Детективы Да Винчи и Родригес, крутые уличные сыщики, под прикрытием полицейских жетонов организовали в городе мощную подпольную сеть наркоторговли. Они действуют просто: находят покупателя, проворачивают с ним сделку, а затем убивают, оставляя себе деньги и товар.После этого аферисты ищут новую жертву, списав смерть клиента на бандитские разборки. Дела идут хорошо, пока не выясняется, что один из убитых — агент комитета по борьбе с наркотиками, работавший под прикрытием. Убийц необходимо найти, и детективы рьяно берутся за дело, решив свалить ответственность за свое злодейство на единственного человека в городе, чей секрет еще страшнее, чем их собственный.И теперь, когда разоблачительные тиски правды начинают сжиматься, Да Винчи и Родригес должны пойти на самый рискованный и хитроумный обман в своей жизни.

Продолжительность: 01:51:16
Перевод: Профессиональный многоголосый, авторский, любительский одноголосый
Субтитры: Английские
Файл
Качество: BDRip (1080p)
Видео: MPEG-4 AVC, 8258 Кбит/с, 1920х816
Аудио #1: Русский (AC3, 5 ch, 448 Кбит/с) Профессиональный многоголосый
Аудио #2: Русский (AC3, 6 ch, 448 Кбит/с) Любительский одноголосый (Михаил Яроцкий aka ''Kyberpunk'' [ненормативная лексика])
Аудио #3: Русский (AC3, 2 ch, 192 Кбит/с) Авторский одноголосый (Юрий Сербин)
Аудио #4: Английский (AC3, 6 ch, 640 Кбит/с)

МедиаИнфо

Формат : Matroska
Версия формата : Version 2
Размер файла : 7,76 Гбайт
Продолжительность : 1 ч. 51 м.
Общий поток : 9984 Кбит/сек
Название фильма : ~V ad~
Дата кодирования : UTC 2016-07-23 04:09:41
Программа кодирования : mkvmerge v6.5.0 ('Isn't she lovely') built on Oct 20 2013 12:50:05
Библиотека кодирования : libebml v1.3.0 + libmatroska v1.4.1
Обложка : Yes
Attachments : cover.jpg
Видео
Идентификатор : 1
Формат : AVC
Формат/Информация : Advanced Video Codec
Профиль формата : High@L4.1
Параметр CABAC формата : Да
Параметр ReFrames формата : 5 кадров
Идентификатор кодека : V_MPEG4/ISO/AVC
Продолжительность : 1 ч. 51 м.
Битрейт : 8258 Кбит/сек
Ширина : 1920 пикселей
Высота : 816 пикселей
Соотношение сторон : 2,35:1
Режим частоты кадров : Постоянный
Частота кадров : 23,976 (24000/1001) кадра/сек
Цветовое пространство : YUV
Субдискретизация насыщенности : 4:2:0
Битовая глубина : 8 бит
Тип развёртки : Прогрессивная
Бит/(Пиксели*Кадры) : 0.220
Размер потока : 6,26 Гбайт (81%)
Заголовок : ~V~
Библиотека кодирования : x264 core 148 r2705 3f5ed56
Настройки программы : cabac=1 / ref=5 / deblock=1:-3:-3 / analyse=0x3:0x133 / me=umh / subme=11 / psy=1 / psy_rd=1.00:0.00 / mixed_ref=1 / me_range=32 / chroma_me=1 / trellis=2 / 8x8dct=1 / cqm=0 / deadzone=21,11 / fast_pskip=0 / chroma_qp_offset=-2 / threads=12 / lookahead_threads=1 / sliced_threads=0 / nr=0 / decimate=0 / interlaced=0 / bluray_compat=0 / constrained_intra=0 / bframes=10 / b_pyramid=2 / b_adapt=2 / b_bias=0 / direct=3 / weightb=1 / open_gop=0 / weightp=2 / keyint=240 / keyint_min=23 / scenecut=40 / intra_refresh=0 / rc=2pass / mbtree=0 / bitrate=8258 / ratetol=1.0 / qcomp=0.60 / qpmin=0 / qpmax=69 / qpstep=4 / cplxblur=20.0 / qblur=0.5 / ip_ratio=1.40 / pb_ratio=1.30 / aq=3:0.90
Язык : English
Default : Да
Forced : Нет
Аудио #1
Идентификатор : 2
Формат : AC-3
Формат/Информация : Audio Coding 3
Расширение режима : CM (complete main)
Параметр Endianness формата : Big
Идентификатор кодека : A_AC3
Продолжительность : 1 ч. 51 м.
Вид битрейта : Постоянный
Битрейт : 448 Кбит/сек
Каналы : 5 каналов
Расположение каналов : Front: L C R, Side: L R
Частота : 48,0 КГц
Частота кадров : 31,250 кадров/сек (1536 spf)
Метод сжатия : С потерями
Размер потока : 357 Мбайт (4%)
Заголовок : MVO
Язык : Russian
Default : Да
Forced : Да
Аудио #2
Идентификатор : 3
Формат : AC-3
Формат/Информация : Audio Coding 3
Расширение режима : CM (complete main)
Параметр Endianness формата : Big
Идентификатор кодека : A_AC3
Продолжительность : 1 ч. 51 м.
Вид битрейта : Постоянный
Битрейт : 448 Кбит/сек
Каналы : 6 каналов
Расположение каналов : Front: L C R, Side: L R, LFE
Частота : 48,0 КГц
Частота кадров : 31,250 кадров/сек (1536 spf)
Метод сжатия : С потерями
Размер потока : 357 Мбайт (4%)
Заголовок : VO[М.Яроцкий ''Kyberpunk']
Язык : Russian
Default : Нет
Forced : Нет
Аудио #3
Идентификатор : 4
Формат : AC-3
Формат/Информация : Audio Coding 3
Расширение режима : CM (complete main)
Параметр Endianness формата : Big
Идентификатор кодека : A_AC3
Продолжительность : 1 ч. 51 м.
Вид битрейта : Постоянный
Битрейт : 192 Кбит/сек
Каналы : 3 канала
Расположение каналов : Front: L R, LFE
Частота : 48,0 КГц
Частота кадров : 31,250 кадров/сек (1536 spf)
Метод сжатия : С потерями
Размер потока : 153 Мбайт (2%)
Заголовок : AVO[Ю.Сербин]
Язык : Russian
Default : Нет
Forced : Нет
Аудио #4
Идентификатор : 5
Формат : AC-3
Формат/Информация : Audio Coding 3
Расширение режима : CM (complete main)
Параметр Endianness формата : Big
Идентификатор кодека : A_AC3
Продолжительность : 1 ч. 51 м.
Вид битрейта : Постоянный
Битрейт : 640 Кбит/сек
Каналы : 6 каналов
Расположение каналов : Front: L C R, Side: L R, LFE
Частота : 48,0 КГц
Частота кадров : 31,250 кадров/сек (1536 spf)
Метод сжатия : С потерями
Размер потока : 509 Мбайт (6%)
Язык : English
Default : Нет
Forced : Нет
Текст #1
Идентификатор : 6
Формат : UTF-8
Идентификатор кодека : S_TEXT/UTF8
Идентификатор кодека/Информация : UTF-8 Plain Text
Заголовок : Full
Язык : English
Default : Нет
Forced : Нет
Текст #2
Идентификатор : 7
Формат : UTF-8
Идентификатор кодека : S_TEXT/UTF8
Идентификатор кодека/Информация : UTF-8 Plain Text
Заголовок : SDH
Язык : English
Default : Нет
Forced : Нет
Меню
00:00:00.000 : :Chapter 01
00:00:10.927 : :Chapter 02
00:13:30.643 : :Chapter 03
00:27:29.564 : :Chapter 04
00:42:47.356 : :Chapter 05
00:58:07.025 : :Chapter 06
01:14:48.400 : :Chapter 07
01:25:26.371 : :Chapter 08
01:37:58.497 : :Chapter 09
01:46:34.375 : :Chapter 10

х264

x264 [info]: frame I:1040 Avg QP:14.65 size:137898
x264 [info]: frame P:30100 Avg QP:16.06 size: 74972
x264 [info]: frame B:128932 Avg QP:17.90 size: 34567

Скриншоты


Сэмпл
Релиз от:
[Профиль] [ЛС]
Кто просматривает тему:

Форум Тема Автор Размер
BBC BBC: Преступники Британии. Разбойники с большой дороги, пираты и мошенники / Britain's Outlaws. Highwaymen, Pirates and Rogues [серии 1-3 из 3] (Andy Hall, Matthew Thomas, Gerry Dawson) [201... skorpionN 5.42 GB
Viasat History Viasat History: Загадочные преступления средневековья / Medieval Murder Mysteries [сезон 1 серии 1-6 из 6] (Брюс Бюргесс / Bruce Burgess) [2016 г., Документальный, история, расследования, SATRip] skorpionN 3.7 GB
Зарубежные сериалы Американская история преступлений / American Crime Story [S01] (2016) WEB-DL 1080p от qqss44 | LostFilm Russian Mafia 20.32 GB
Зарубежные сериалы Американская история преступлений / American Crime Story [S01] (2016) WEB-DLRip от GeneralFilm | Jaskier Russian Mafia 5.43 GB
Зарубежные сериалы Американская история преступлений / The People v. O.J. Simpson: American Crime Story [S01] (2016) WEB-DL 720p | NewStudio Russian Mafia 17.3 GB
Зарубежные сериалы Американская история преступлений / The People v. O.J. Simpson: American Crime Story [S01] (2016) WEB-DLRip | NewStudio Russian Mafia 6.11 GB
Фильмы (HD Rips | 720p, 1080p) Американское преступление / An American Crime (2007) BDRip 720p от Leonardo and Scarabey sergej644 1.6 GB
Фильмы 2015 года Арлетти. Преступная страсть / Arletty, une passion coupable (Арно Селиньяк / Arnaud Selignac) [2015, Франция, биография, драма, военный, DVDRip] Sub Rus + Original French TorrentFilm 1.05 GB
Показать сообщения:    

Текущее время: Сегодня 20:10

Часовой пояс: GMT



Вы не можете начинать темы
Вы не можете отвечать на сообщения
Вы не можете редактировать свои сообщения
Вы не можете удалять свои сообщения
Вы не можете голосовать в опросах
Вы не можете прикреплять файлы к сообщениям
Вы не можете скачивать файлы