Преступник / Criminal (2016) BDRip 1080p | D | iTunes

 
Автор Сообщение

BOSS ®

Пол:

Стаж: 2 года 1 месяц

Сообщений: 3735

Откуда: ODESSA



Награды: 20 (Подробнее)

Mega Seeder 3 (Количество: 1) Mega Seeder 5 (Количество: 1) Top Seeder 2 (Количество: 1)
Торрент-статистика

Создавать темы 14-Июл-2016 04:52

[Цитировать]

Преступник / Criminal
Страна: Великобритания США
Производство: Lionsgate, Millennium Films, Campbell Grobman Films, BenderSpink
Год выпуска: 2016
Жанр: фантастика, боевик, триллер, драма, криминал, детектив
Продолжительность: 01:53:34
Режиссер: Ариэль Вромен
Авторы сценария: Дуглас Кук, Дэвид Уайсберг
В ролях: Кевин Костнер, Гари Олдман, Томми Ли Джонс, Райан Рейнольдс, Элис Ив, Галь Гадот, Хорди Молья, Майкл Питт
Описание: В последней отчаянной попытке остановить катастрофу мирового масштаба генетики осуществляют невероятную операцию по вживлению воспоминаний и умений погибшего оперативника ЦРУ в тело опасного заключенного с надеждой, что тот доведет до конца прерванную миссию агента...

Перевод: Профессиональный (полное дублирование) | iTunes
Субтитры: английские-Качество: BDRip 1080p
Формат: МКV
Видео кодек: AVC
Аудио кодек: АС3 | DTS
Видео: 1920x808 (2.40:1), 23.976 fps, MPEG-4 AVC ~9 463 kbps avg
Аудио №1: 48 kHz, AC3 Dolby Digital, 3/2 (L,C,R,l,r) + LFE ch, ~384 kbps | RUS
Аудио №2: 48 kHz, Digital Theater Systems, 3/2 (L,C,R,l,r) + LFE ch, ~1509 kbps | ENG
Формат субтитров: UTF-8 Plain Text
Дата премьеры (мир): 7 апреля 2016
Дата премьеры (РФ): 14 апреля 2016, «MEGOGO Distribution»

Media Info

General
Unique ID : 213218801279518136231794501964231492753 (0xA0687289666617C88B0D8488E59A4491)
Format : Matroska
Format version : Version 4 / Version 2
Overall bit rate : 11.6 Mbps
Movie name : MoreFilms
Encoded date : UTC 2016-07-14 02:10:41
Writing application : mkvmerge v8.8.0 ('Wind at my back') 64bit
Writing library : libebml v1.3.3 + libmatroska v1.4.4
DURATION : 00:00:41.077000000
NUMBER_OF_FRAMES : 3851
NUMBER_OF_BYTES : 7748212
_STATISTICS_WRITING_APP : mkvmerge v8.8.0 ('Wind at my back') 64bit
_STATISTICS_WRITING_DATE_UTC : 2016-07-14 02:10:41
Video
ID : 2
Format : AVC
Format/Info : Advanced Video Codec
Format profile : High@L4.1
Format settings, CABAC : Yes
Format settings, ReFrames : 5 frames
Codec ID : V_MPEG4/ISO/AVC
Bit rate : 9 463 Kbps
Width : 1 920 pixels
Height : 808 pixels
Display aspect ratio : 2.40:1
Frame rate mode : Constant
Frame rate : 23.976 fps
Color space : YUV
Chroma subsampling : 4:2:0
Bit depth : 8 bits
Scan type : Progressive
Bits/(Pixel*Frame) : 0.254
Stream size : 46.3 MiB (82%)
Language : English
Default : Yes
Forced : No
Audio #1
ID : 1
Format : AC-3
Format/Info : Audio Coding 3
Mode extension : CM (complete main)
Format settings, Endianness : Big
Codec ID : A_AC3
Bit rate mode : Constant
Bit rate : 384 Kbps
Channel(s) : 6 channels
Channel positions : Front: L C R, Side: L R, LFE
Sampling rate : 48.0 KHz
Compression mode : Lossy
Stream size : 1.88 MiB (3%)
Language : Russian
Default : Yes
Forced : Yes
DURATION : 00:00:41.083000000
NUMBER_OF_FRAMES : 985
NUMBER_OF_BYTES : 49768129
_STATISTICS_WRITING_APP : mkvmerge v8.8.0 ('Wind at my back') 64bit
_STATISTICS_WRITING_DATE_UTC : 2016-07-14 02:10:41
Audio #2
ID : 3
Format : DTS
Format/Info : Digital Theater Systems
Mode : 16
Format settings, Endianness : Big
Codec ID : A_DTS
Bit rate mode : Constant
Bit rate : 1 509 Kbps
Channel(s) : 6 channels
Channel positions : Front: L C R, Side: L R, LFE
Sampling rate : 48.0 KHz
Bit depth : 24 bits
Compression mode : Lossy
Stream size : 7.39 MiB (13%)
Language : English
Default : No
Forced : No

Скриншоты

[Профиль] [ЛС]
Кто просматривает тему:

Форум Тема Автор Размер
BBC BBC: Преступники Британии. Разбойники с большой дороги, пираты и мошенники / Britain's Outlaws. Highwaymen, Pirates and Rogues [серии 1-3 из 3] (Andy Hall, Matthew Thomas, Gerry Dawson) [201... skorpionN 5.42 GB
Viasat History Viasat History: Загадочные преступления средневековья / Medieval Murder Mysteries [сезон 1 серии 1-6 из 6] (Брюс Бюргесс / Bruce Burgess) [2016 г., Документальный, история, расследования, SATRip] skorpionN 3.7 GB
Зарубежные сериалы Американская история преступлений / American Crime Story [S01] (2016) WEB-DL 1080p от qqss44 | LostFilm Russian Mafia 20.32 GB
Зарубежные сериалы Американская история преступлений / American Crime Story [S01] (2016) WEB-DLRip от GeneralFilm | Jaskier Russian Mafia 5.43 GB
Зарубежные сериалы Американская история преступлений / The People v. O.J. Simpson: American Crime Story [S01] (2016) WEB-DL 720p | NewStudio Russian Mafia 17.3 GB
Зарубежные сериалы Американская история преступлений / The People v. O.J. Simpson: American Crime Story [S01] (2016) WEB-DLRip | NewStudio Russian Mafia 6.11 GB
Фильмы (HD Rips | 720p, 1080p) Американское преступление / An American Crime (2007) BDRip 720p от Leonardo and Scarabey sergej644 1.6 GB
Фильмы 2015 года Арлетти. Преступная страсть / Arletty, une passion coupable (Арно Селиньяк / Arnaud Selignac) [2015, Франция, биография, драма, военный, DVDRip] Sub Rus + Original French TorrentFilm 1.05 GB
Показать сообщения:    

Текущее время: Сегодня 22:30

Часовой пояс: GMT



Вы не можете начинать темы
Вы не можете отвечать на сообщения
Вы не можете редактировать свои сообщения
Вы не можете удалять свои сообщения
Вы не можете голосовать в опросах
Вы не можете прикреплять файлы к сообщениям
Вы не можете скачивать файлы