Преступник / Criminal (2016) НDRip | D | iTunes

 
Автор Сообщение

BOSS ®

Пол:

Стаж: 2 года 1 месяц

Сообщений: 3729

Откуда: ODESSA



Награды: 20 (Подробнее)

Top Keeper 2 (Количество: 1) Top Releaser 4 (Количество: 1) Top Seeder 5 (Количество: 1)
Торрент-статистика

Создавать темы 14-Июл-2016 04:50

[Цитировать]

Преступник / Criminal
Страна: Великобритания США
Производство: Lionsgate, Millennium Films, Campbell Grobman Films, BenderSpink
Год выпуска: 2016
Жанр: фантастика, боевик, триллер, драма, криминал, детектив
Продолжительность: 01:53:34
Режиссер: Ариэль Вромен
Авторы сценария: Дуглас Кук, Дэвид Уайсберг
В ролях: Кевин Костнер, Гари Олдман, Томми Ли Джонс, Райан Рейнольдс, Элис Ив, Галь Гадот, Хорди Молья, Майкл Питт
Описание: В последней отчаянной попытке остановить катастрофу мирового масштаба генетики осуществляют невероятную операцию по вживлению воспоминаний и умений погибшего оперативника ЦРУ в тело опасного заключенного с надеждой, что тот доведет до конца прерванную миссию агента...

Перевод: Профессиональный (полное дублирование) | iTunes
Субтитры: нет-Качество: НDRip
Формат: AVI
Видео кодек: XviD
Аудио кодек: АС3
Видео: 720x304 (2.35:1), 23.976 fps, XviD ~1 656 kbps avg
Аудио: 48 kHz, AC3 Dolby Digital, 3/2 (L,C,R,l,r) + LFE ch, ~384 kbps
Дата премьеры (мир): 7 апреля 2016
Дата премьеры (РФ): 14 апреля 2016, «MEGOGO Distribution»

Media Info

General
Format : AVI
Format/Info : Audio Video Interleave
Overall bit rate : 2 050 Kbps
Writing application : VirtualDubMod 1.5.10.3 | (build 2550/release)
Writing library : VirtualDubMod build 2550/release
Video
ID : 0
Format : MPEG-4 Visual
Format profile : Advanced Simple@L5
Format settings, BVOP : 2
Format settings, QPel : No
Format settings, GMC : No warppoints
Format settings, Matrix : Default (MPEG)
Codec ID : XVID
Codec ID/Hint : XviD
Bit rate : 1 656 Kbps
Width : 720 pixels
Height : 304 pixels
Display aspect ratio : 2.35:1
Frame rate : 23.976 fps
Color space : YUV
Chroma subsampling : 4:2:0
Bit depth : 8 bits
Scan type : Progressive
Compression mode : Lossy
Bits/(Pixel*Frame) : 0.316
Stream size : 15.2 MiB (81%)
Writing library : XviD 1.2.1 (UTC 2008-12-04)
Audio
ID : 1
Format : AC-3
Format/Info : Audio Coding 3
Mode extension : CM (complete main)
Format settings, Endianness : Big
Codec ID : 2000
Bit rate mode : Constant
Bit rate : 384 Kbps
Channel(s) : 6 channels
Channel positions : Front: L C R, Side: L R, LFE
Sampling rate : 48.0 KHz
Compression mode : Lossy
Stream size : 3.53 MiB (19%)
Alignment : Split accross interleaves
Interleave, duration : 42 ms (1.01 video frame)
Interleave, preload duration : 500 ms

Скриншоты

[Профиль] [ЛС]
Кто просматривает тему:

Форум Тема Автор Размер
BBC BBC: Преступники Британии. Разбойники с большой дороги, пираты и мошенники / Britain's Outlaws. Highwaymen, Pirates and Rogues [серии 1-3 из 3] (Andy Hall, Matthew Thomas, Gerry Dawson) [201... skorpionN 5.42 GB
Viasat History Viasat History: Загадочные преступления средневековья / Medieval Murder Mysteries [сезон 1 серии 1-6 из 6] (Брюс Бюргесс / Bruce Burgess) [2016 г., Документальный, история, расследования, SATRip] skorpionN 3.7 GB
Зарубежные сериалы Американская история преступлений / American Crime Story [S01] (2016) WEB-DL 1080p от qqss44 | LostFilm Russian Mafia 20.32 GB
Зарубежные сериалы Американская история преступлений / American Crime Story [S01] (2016) WEB-DLRip от GeneralFilm | Jaskier Russian Mafia 5.43 GB
Зарубежные сериалы Американская история преступлений / The People v. O.J. Simpson: American Crime Story [S01] (2016) WEB-DL 720p | NewStudio Russian Mafia 17.3 GB
Зарубежные сериалы Американская история преступлений / The People v. O.J. Simpson: American Crime Story [S01] (2016) WEB-DLRip | NewStudio Russian Mafia 6.11 GB
Фильмы (HD Rips | 720p, 1080p) Американское преступление / An American Crime (2007) BDRip 720p от Leonardo and Scarabey sergej644 1.6 GB
Фильмы 2015 года Арлетти. Преступная страсть / Arletty, une passion coupable (Арно Селиньяк / Arnaud Selignac) [2015, Франция, биография, драма, военный, DVDRip] Sub Rus + Original French TorrentFilm 1.05 GB
Показать сообщения:    

Текущее время: Сегодня 01:10

Часовой пояс: GMT



Вы не можете начинать темы
Вы не можете отвечать на сообщения
Вы не можете редактировать свои сообщения
Вы не можете удалять свои сообщения
Вы не можете голосовать в опросах
Вы не можете прикреплять файлы к сообщениям
Вы не можете скачивать файлы