Преступная деятельность / Criminal Activities (Джеки Эрл Хейли / Jackie Earle Haley) [2015, США, триллер, драма, криминал, WEB-DLRip] VO + Original (Eng) + Sub (Eng)

 
Автор Сообщение

TorrentFilm ®

Пол:

Стаж: 2 года

Сообщений: 7741



Награды: Нет

Торрент-статистика

Создавать темы 06-Дек-2015 00:08

[Цитировать]

Преступная деятельность / Criminal Activities
Страна: США
Жанр: триллер, драма, криминал
Год выпуска: 2015
Продолжительность: 01:33:54
Перевод: Одноголосый закадровый (VANO)
Оригинальная аудиодорожка: есть (английская) отдельной дорогой
Cубтитры: английские-Режиссер: Джеки Эрл Хейли / Jackie Earle Haley-В ролях: Дэн Стивенс, Джон Траволта, Джеки Эрл Хейли, Майкл Питт, Эди Гатеги, Кристофер Эбботт, Роб Браун, Лиза Катара, Трэвис Аарон, Морган Волк и др.-Описание: Четверо молодых людей инвестировали деньги в рискованное дело, которое приводит их к конфликту с мафией.-Сэмпл: http://multi-up.com/1076681-Качество видео: WEB-DLRip
Формат видео: AVI-Видео: 704x288 (2.44:1), 23.976 fps, XviD build 73 ~2000 kbps avg, 0.41 bit/pixel
Аудио 1: 48 kHz, AC3 Dolby Digital, 2/0 (L,R) ch, ~192.00 kbps avg (VO)
Аудио 2: 48 kHz, AC3 Dolby Digital, 3/2 (L,C,R,l,r) + LFE ch, ~384.00 kbps avg (Eng) отдельной дорогой
Формат субтитров: softsub (SRT)

Как добавить/удалить/поменять местами звуковую дорожку

Из за ограничений контейнера AVI, часто, звуковые дорожки к фильмам идут отдельными файлами. Но смотреть их хочется именно с этими дорожками, да еще и на бытовом плеере, который отдельных дорожек не понимает. Что делать? Прикрепить желаемую дорожку к фильму!
Многие скажут, это же сложно, нужно уметь пользоваться видеоредакторами, но это не так. Все невероятно легко!
Для начала нужно скачать программу VirtualDub 1.5.10.2
установили её, запускаем и видим вот такое окно:

Жмем File, Open video file (Файл -> открыть видеофайл...). И выбираем файл с фильмом.

Жмем Streams, stream list (Потоки -> потоки).

Жмем Add (Добавить)

И выбираем файл со звуковой дорожкой.
Теперь мы можем переместить нажу дорожку наверх (чтобы она воспроизводилась по умолчанию) кнопкой Move Up (Вверх, Вниз). Или же вообще убрать не нужную нам дорожку кнопкой Disable (Отключить). После всех действий жмем OK.

Время сохранять файл. Жмем File, Save As (Файл -> Сохранить как).

В открывшемся окне вводим имя файла. И выставляем Direct Stream Copy (Прямопотоковое копирование) в параметре Video Mode (Видеорежим). Это очень важно, т.к. если этого не сделать видео будет подвергнуто перекодированию и потеряет в качестве. Кроме того перекодирование занимает гораздо больше времени чем простое копирование потока.

Жмем сохранить и через несколько минут получаем фильм с нужной звуковой дорожкой.

MediaInfo

Общее
Полное имя : C:\Преступная деятельность (2015)\Преступная деятельность (2015) VO.avi
Формат : AVI
Формат/Информация : Audio Video Interleave
Размер файла : 1,43 Гбайт
Продолжительность : 1 ч. 33 м.
Общий поток : 2179 Кбит/сек
Программа кодирования : VirtualDubModRus 1.5.10.2 (build 2542/release)
Библиотека кодирования : VirtualDubMod build 2542/release
Видео
Идентификатор : 0
Формат : MPEG-4 Visual
Профиль формата : Advanced Simple@L5
Параметр BVOP формата : 1
Параметр QPel формата : Нет
Параметр GMC формата : Без точки перехода
Параметр матрицы формата : Выборочная
Идентификатор кодека : DX50
Идентификатор кодека/Подсказка : DivX 5
Продолжительность : 1 ч. 33 м.
Битрейт : 1978 Кбит/сек
Ширина : 704 пикселя
Высота : 288 пикселей
Соотношение сторон : 2,40:1
Частота кадров : 23,976 кадра/сек
Цветовое пространство : YUV
Субдискретизация насыщенности : 4:2:0
Битовая глубина : 8 бит
Тип развёртки : Прогрессивная
Метод сжатия : С потерями
Бит/(Пиксели*Кадры) : 0.407
Размер потока : 1,30 Гбайт (91%)
Библиотека кодирования : XviD 73
Аудио
Идентификатор : 1
Формат : AC-3
Формат/Информация : Audio Coding 3
Расширение режима : CM (complete main)
Параметр Endianness формата : Big
Идентификатор кодека : 2000
Продолжительность : 1 ч. 33 м.
Вид битрейта : Постоянный
Битрейт : 192 Кбит/сек
Каналы : 2 канала
Расположение каналов : Front: L R
Частота : 48,0 КГц
Битовая глубина : 16 бит
Метод сжатия : С потерями
Размер потока : 129 Мбайт (9%)
Выравнивание : Разделение по промежуткам
Продолжительность промежутка : 42 мс. (1,00 видеокадр)
Время предзагрузки промежутка : 500 мс.

Скриншоты

[Профиль] [ЛС]
Кто просматривает тему:

Форум Тема Автор Размер
BBC BBC: Преступники Британии. Разбойники с большой дороги, пираты и мошенники / Britain's Outlaws. Highwaymen, Pirates and Rogues [серии 1-3 из 3] (Andy Hall, Matthew Thomas, Gerry Dawson) [201... skorpionN 5.42 GB
Viasat History Viasat History: Загадочные преступления средневековья / Medieval Murder Mysteries [сезон 1 серии 1-6 из 6] (Брюс Бюргесс / Bruce Burgess) [2016 г., Документальный, история, расследования, SATRip] skorpionN 3.7 GB
Зарубежные сериалы Американская история преступлений / American Crime Story [S01] (2016) WEB-DL 1080p от qqss44 | LostFilm Russian Mafia 20.32 GB
Зарубежные сериалы Американская история преступлений / American Crime Story [S01] (2016) WEB-DLRip от GeneralFilm | Jaskier Russian Mafia 5.43 GB
Зарубежные сериалы Американская история преступлений / The People v. O.J. Simpson: American Crime Story [S01] (2016) WEB-DL 720p | NewStudio Russian Mafia 17.3 GB
Зарубежные сериалы Американская история преступлений / The People v. O.J. Simpson: American Crime Story [S01] (2016) WEB-DLRip | NewStudio Russian Mafia 6.11 GB
Фильмы (HD Rips | 720p, 1080p) Американское преступление / An American Crime (2007) BDRip 720p от Leonardo and Scarabey sergej644 1.6 GB
Фильмы 2015 года Арлетти. Преступная страсть / Arletty, une passion coupable (Арно Селиньяк / Arnaud Selignac) [2015, Франция, биография, драма, военный, DVDRip] Sub Rus + Original French TorrentFilm 1.05 GB
Показать сообщения:    

Текущее время: Сегодня 13:51

Часовой пояс: GMT



Вы не можете начинать темы
Вы не можете отвечать на сообщения
Вы не можете редактировать свои сообщения
Вы не можете удалять свои сообщения
Вы не можете голосовать в опросах
Вы не можете прикреплять файлы к сообщениям
Вы не можете скачивать файлы