Преступления прошлого / Case Histories [S02] (2013) HDTVRip | Jetvis Studio

 
Автор Сообщение

Белочка ®

Пол:

Стаж: 5 лет 1 месяц

Сообщений: 2089



Награды: 1 (Подробнее)

Girls (Количество: 1)
Торрент-статистика

Создавать темы 20-Ноя-2014 22:36

[Цитировать]

Информация о фильме
Название: Преступления прошлого
Оригинальное название: Case Histories
Год выхода: 2013
Жанр: драма, криминал
Режиссер: Билл Андерсон, Марк Йобст, Дэн Зефф
В ролях: Джейсон Айзекс, Аманда Аббингтон, Зэйв Эштон, Милли Иннес, Наташа Литтл, Кирсти Митчелл, Эдвард Корри, Маартен Стивен, Рори Барраклаф, Аллан Линдсэй
О фильме:
Разведенный частный детектив Джексон Броуди часто отказывается вести дело, если клиент ему неприятен. Зато ввязывается в дела, где его помощь вроде бы и не нужна, а полиция, в которой он долго работал и откуда ушёл с большим скандалом так прямо и намекает, чтобы он держался в стороне. Однако наш герой не из таких. Куда детектива Джексона Броуди приведёт его собственное любопытство, пережитый им опыт потери сестры и насыщенная преступлениями жизнь провинциального Эдинбурга.
Официальный сайт
Страна: Великобритания
Студия: Ruby Films, BBC, BBC One
Продолжительность: ~01:27:00 серия
Перевод: Любительский (двухголосый закадровый) [Jetvis Studio]
Файл
Кодек: XviD /
Качество: HDTVRip
Видео: MPEG4, XviD, 640x360 (16:9), 25.000 fps, 1 183 Kbps (0.205 bit/pixel)
Звук:
Аудио #1: MP3, 48.0 KHz, 2 ch, 128 Kbps, CBR [Rus]
Аудио #2: MP3, 48.0 KHz, 2 ch, 128 Kbps, CBR [Eng]
Cубтитры: Русские (внешние)

Скриншоты

MediaInfo

General
Complete name : /Case.Histories.S02E01.Jetvis.Studio.avi
Format : AVI
Format/Info : Audio Video Interleave
File size : 909 MiB
Duration : 1h 27mn
Overall bit rate : 1 460 Kbps
Video
ID : 0
Format : MPEG-4 Visual
Format profile : Advanced Simple@L5
Format settings, BVOP : 2
Format settings, QPel : No
Format settings, GMC : No warppoints
Format settings, Matrix : Default (H.263)
Codec ID : XVID
Codec ID/Hint : XviD
Duration : 1h 27mn
Bit rate : 1 183 Kbps
Width : 640 pixels
Height : 360 pixels
Display aspect ratio : 16:9
Frame rate : 25.000 fps
Color space : YUV
Chroma subsampling : 4:2:0
Bit depth : 8 bits
Scan type : Progressive
Compression mode : Lossy
Bits/(Pixel*Frame) : 0.205
Stream size : 736 MiB (81%)
Writing library : XviD 64
Audio #1
ID : 1
Format : MPEG Audio
Format version : Version 1
Format profile : Layer 3
Codec ID : 55
Codec ID/Hint : MP3
Duration : 1h 27mn
Bit rate mode : Constant
Bit rate : 128 Kbps
Channel(s) : 2 channels
Sampling rate : 48.0 KHz
Compression mode : Lossy
Stream size : 79.7 MiB (9%)
Alignment : Aligned on interleaves
Interleave, duration : 24 ms (0.60 video frame)
Audio #2
ID : 2
Format : MPEG Audio
Format version : Version 1
Format profile : Layer 3
Codec ID : 55
Codec ID/Hint : MP3
Duration : 1h 27mn
Bit rate mode : Constant
Bit rate : 128 Kbps
Channel(s) : 2 channels
Sampling rate : 48.0 KHz
Compression mode : Lossy
Stream size : 79.7 MiB (9%)
Alignment : Aligned on interleaves
Interleave, duration : 24 ms (0.60 video frame)
[Профиль] [ЛС]
Кто просматривает тему:

Форум Тема Автор Размер
BBC BBC: Преступники Британии. Разбойники с большой дороги, пираты и мошенники / Britain's Outlaws. Highwaymen, Pirates and Rogues [серии 1-3 из 3] (Andy Hall, Matthew Thomas, Gerry Dawson) [201... skorpionN 5.42 GB
Viasat History Viasat History: Загадочные преступления средневековья / Medieval Murder Mysteries [сезон 1 серии 1-6 из 6] (Брюс Бюргесс / Bruce Burgess) [2016 г., Документальный, история, расследования, SATRip] skorpionN 3.7 GB
Зарубежные сериалы Американская история преступлений / American Crime Story [S01] (2016) WEB-DL 1080p от qqss44 | LostFilm Russian Mafia 20.32 GB
Зарубежные сериалы Американская история преступлений / American Crime Story [S01] (2016) WEB-DLRip от GeneralFilm | Jaskier Russian Mafia 5.43 GB
Зарубежные сериалы Американская история преступлений / The People v. O.J. Simpson: American Crime Story [S01] (2016) WEB-DL 720p | NewStudio Russian Mafia 17.3 GB
Зарубежные сериалы Американская история преступлений / The People v. O.J. Simpson: American Crime Story [S01] (2016) WEB-DLRip | NewStudio Russian Mafia 6.11 GB
Фильмы (HD Rips | 720p, 1080p) Американское преступление / An American Crime (2007) BDRip 720p от Leonardo and Scarabey sergej644 1.6 GB
Фильмы 2015 года Арлетти. Преступная страсть / Arletty, une passion coupable (Арно Селиньяк / Arnaud Selignac) [2015, Франция, биография, драма, военный, DVDRip] Sub Rus + Original French TorrentFilm 1.05 GB
Показать сообщения:    

Текущее время: Сегодня 12:29

Часовой пояс: GMT



Вы не можете начинать темы
Вы не можете отвечать на сообщения
Вы не можете редактировать свои сообщения
Вы не можете удалять свои сообщения
Вы не можете голосовать в опросах
Вы не можете прикреплять файлы к сообщениям
Вы не можете скачивать файлы