Пресс-конференция Президента РФ Владимира Путина [2014, Документальный, HDTV 1080i]

 
Автор Сообщение

TorrentFilm ®

Пол:

Стаж: 2 года

Сообщений: 7741



Награды: Нет

Торрент-статистика

Создавать темы 29-Дек-2014 00:15

[Цитировать]

Пресс-конференция Президента РФ Владимира Путина
Год выпуска: 2014
Страна: Россия
Студия: ВГТРК, Первый канал
Жанр: Документальный
Продолжительность: 03:09:26
Перевод: Не требуется
Русские субтитры: нет
Описание: Прямая трансляция большой пресс-конференции президента РФ Владимира Путина, в ходе которой он отвечает на вопросы представителей СМИ об экономике, политическом курсе страны и развитии социальной сферы.
Доп. информация: Релиз -

Рип чистый. Без посторонних надписей. Выкладывается как есть.
Качество: HDTV 1080i
Контейнер: TS
Видео кодек: AVC
Аудио кодек: MP2, AC3
Видео: 1920x1080 (16:9) 25.000 fps ~ 11.0 Mbps, 0.220 bit/pixel
Аудио 1: MPEG Audio 48000Hz stereo 224 Кбит/сек
Аудио 2: AC3, 6 channels, 48000Hz, 384 Кбит/сек

Скриншоты


Скринлисты

MI

GeneralID : 1 (0x1)Complete name : H:\ВЫКЛАДКА\Пресс-конференция Президента РФ Владимира Путина (2014, Документальный, HDTV 1080i) (MYDIMKA).tsFormat : MPEG-TSFile size : 15.9 GiBDuration : 3h 9mnOverall bit rate mode : VariableOverall bit rate : 12.0 Mbps
VideoID : 1902 (0x76E)Menu ID : 1 (0x1)Format : AVCFormat/Info : Advanced Video CodecFormat profile : High@L4.0Format settings, CABAC : YesFormat settings, ReFrames : 3 framesCodec ID : 27Duration : 3h 9mnBit rate : 10.8 MbpsWidth : 1 920 pixelsHeight : 1 080 pixelsDisplay aspect ratio : 16:9Frame rate : 25.000 fpsStandard : ComponentColor space : YUVChroma subsampling : 4:2:0Bit depth : 8 bitsScan type : InterlacedScan order : Top Field FirstBits/(Pixel*Frame) : 0.208Stream size : 14.3 GiB (90%)Color primaries : BT.709Transfer characteristics : BT.709Matrix coefficients : BT.709
Audio #1ID : 2902 (0xB56)Menu ID : 1 (0x1)Format : MPEG AudioFormat version : Version 1Format profile : Layer 2Codec ID : 3Duration : 3h 9mnBit rate mode : ConstantBit rate : 224 KbpsChannel(s) : 2 channelsSampling rate : 48.0 KHzCompression mode : LossyStream size : 304 MiB (2%)Language : Russian
Audio #2ID : 3902 (0xF3E)Menu ID : 1 (0x1)Format : AC-3Format/Info : Audio Coding 3Mode extension : CM (complete main)Format settings, Endianness : BigCodec ID : 6Duration : 3h 9mnBit rate mode : ConstantBit rate : 384 KbpsChannel(s) : 6 channelsChannel positions : Front: L C R, Side: L R, LFESampling rate : 48.0 KHzBit depth : 16 bitsCompression mode : LossyStream size : 520 MiB (3%)Language : Russian
[Профиль] [ЛС]
Кто просматривает тему:

Форум Тема Автор Размер
Фильмы (DVD 5/9) Депрессия (Алоиз Бренч) [1991, криминальная драма, DVD5 (custom)] TorrentFilm 3.43 GB
Документальные HD Импрессионисты: живопись и революция / BBC. The Impressionists: Painting and Revolution (4 серии из 4) (Вальдемар Янушчак / Waldemar Januzczak) [2011, документальный, живопись, HDTVRip 720p] TorrentFilm 7.19 GB
Разная литература Ирина Окунева | Экспресс-курс садовой обрезки (2014) [FB2] достали все 5 MB
Фильмы 2016 года Поезд в Пусан / Последний экспресс / Busanhaeng / Train In Busan (2016) WEBRip | L, L1 достали все 2.05 GB
R.G.TorrentFilm Video Полуночный экспресс / The Midnight Meat Train (Рюхэй Китамура) [2008 г., ужасы, триллер, BDRip 1080p] [DUB] | Director's Cut Bathory 9.13 GB
Фильмы 2006-2008 года Полуночный экспресс / The Midnight Meat Train (Рюхэй Китамура) [2008 г., ужасы, триллер, BDRip-AVC] [DUB] | Director's Cut Bathory 2.18 GB
Приключения, Квесты, Логические Тайна Летящего Экспресса / Runaway Express Mystery (2014) PC достали все 411 MB
Фильмы (HD DVD, Blu-ray и BDRemux) Шугарлендский экспресс / The Sugarland Express (Стивен Спилберг) [1974 г., драма, комедия, криминал, приключения] Blu-ray 1080 Magnat 32.87 GB
Показать сообщения:    

Текущее время: Сегодня 21:30

Часовой пояс: GMT



Вы не можете начинать темы
Вы не можете отвечать на сообщения
Вы не можете редактировать свои сообщения
Вы не можете удалять свои сообщения
Вы не можете голосовать в опросах
Вы не можете прикреплять файлы к сообщениям
Вы не можете скачивать файлы