Преследуя опасность / Следы опасности / A Trace of Danger (Терри Ингрэм / Terry Ingram) [2010, Канада, триллер, SATRip] DVO

 
Автор Сообщение

painkiller ®

Стаж: 2 года 3 месяца

Сообщений: 582



Награды: Нет

Торрент-статистика

Создавать темы 16-Авг-2014 01:26

[Цитировать]

Преследуя опасность / Следы опасности / A Trace of Danger
Страна: Канада
Студия: Reel One Entertainment
Жанр: триллер
Год выпуска: 2010
Продолжительность: 01:24:16
Перевод: Профессиональный (двухголосый закадровый)
Cубтитры: нет
Оригинальная аудиодорожка: нет
Режиссер: Терри Ингрэм / Terry Ingram
В ролях: Эммануэль Вагир, Иван Сергей, Гари Чок, Майкл Копса
Описание: Фильм рассказывает о Кейт Уилсон (Эммануэль Вожье), успешном адвокате из Сан-Франциско. Однажды ей звонит Дэвид (Иван Сергей), ее школьная любовь - его обвиняют в убийстве и он просит ее стать его защитником. Кейт не может отказать и приезжает в родной город, где не появлялась уже много лет.
По мере того, как продвигается это расследование, Кейт и Дэвид осознают, что чувства, которые когда-то объединяли их, еще не угасли. Одновременно Кейт видит, что очень многие в городе ненавидят ее подзащитного. И все же она считает его не виновным и намерена убедительно доказать это. Но чем дальше продвигается это дело, тем все более героиню триллера «Следы опасности» преследует ощущение, что за всей ее деятельностью словно бы кто-то наблюдает. Кто-то, кому совсем не хочется, чтобы правда об этом преступлении вышла наружу…
II Сэмпл II IMDB II
Доп. информация:
Запись с канала TV XXI
Качество видео: SATRip
Формат видео: AVI
Видео: Xvid 720x400 (16:9) 25.0fps Bit rate 2212Kbps b/p 0.307
Аудио: AC3 48.0KHz 2ch 192 Kbps rus

MediaInfo

Общее
Полное имя : E:\torrent\A.Trace.of.Danger.Satrip.avi
Формат : AVI
Формат/Информация : Audio Video Interleave
Размер файла : 1,42 Гбайт
Продолжительность : 1 ч. 24 м.
Общий поток : 2414 Кбит/сек
Библиотека кодирования : VirtualDub build 32842/release
Видео
Идентификатор : 0
Формат : MPEG-4 Visual
Профиль формата : Advanced Simple@L5
Параметр BVOP формата : 2
Параметр QPel формата : Нет
Параметр GMC формата : Без точки перехода
Параметр матрицы формата : Default (H.263)
Идентификатор кодека : XVID
Идентификатор кодека/Подсказка : XviD
Продолжительность : 1 ч. 24 м.
Битрейт : 2212 Кбит/сек
Ширина : 720 пикселей
Высота : 400 пикселей
Соотношение сторон : 16:9
Частота кадров : 25,000 кадров/сек
Цветовое пространство : YUV
Субдискретизация насыщенности : 4:2:0
Битовая глубина : 8 бит
Тип развёртки : Прогрессивная
Метод сжатия : С потерями
Бит/(Пиксели*Кадры) : 0.307
Размер потока : 1,30 Гбайт (92%)
Библиотека кодирования : XviD 1.2.1 (UTC 2008-12-04)
Аудио
Идентификатор : 1
Формат : AC-3
Формат/Информация : Audio Coding 3
Расширение режима : CM (complete main)
Параметр Endianness формата : Big
Идентификатор кодека : 2000
Продолжительность : 1 ч. 24 м.
Вид битрейта : Постоянный
Битрейт : 192 Кбит/сек
Каналы : 2 канала
Расположение каналов : Front: L R
Частота : 48,0 КГц
Битовая глубина : 16 бит
Метод сжатия : С потерями
Размер потока : 116 Мбайт (8%)
Выравнивание : Соединение по промежуткам
Продолжительность промежутка : 40 мс. (1,00 видеокадр)
Время предзагрузки промежутка : 512 мс.

Скриншот c названием фильма

Скриншоты

[Профиль] [ЛС]

Создавать темы 06-Авг-2015 23:10 (спустя 11 месяцев 21 день)

Топик был перенесен из форума Фильмы до 2014 года в форум Фильмы до 2012 года
sergej644
 

Создавать темы 12-Июн-2016 07:54 (спустя 1 год 9 месяцев)

Топик был перенесен из форума Фильмы 2011 года в форум Фильмы 2010 года
Russian Mafia
 
Кто просматривает тему:

Форум Тема Автор Размер
Разное Биатлон. Кубок Мира 2014-15. 1-й этап. Эстерсунд (Швеция) 1-й этап. Эстерсунд (Швеция) Женщины. Гонка преслед Евроспорт (2014) SATRip sergej644 653 MB
Разное Биатлон. Кубок Мира 2014-15. 1-й этап. Эстерсунд (Швеция) 1-й этап. Эстерсунд (Швеция) Женщины. Гонка преследов (2014) HDTVRip 720p | 50 FPS sergej644 1.33 GB
Разное Биатлон. Кубок Мира 2014-15. 1-й этап. Эстерсунд (Швеция) 1-й этап. Эстерсунд (Швеция) Женщины. Гонка преследования 10 км (2014) HDTV 1080i sergej644 3.89 GB
Разное Биатлон. Кубок Мира 2014-15. 1-й этап. Эстерсунд (Швеция) 1-й этап. Эстерсунд (Швеция) Мужчины. Гонка преслед (2014) HDTVRip 720p | 50 FPS sergej644 1.76 GB
Разное Биатлон. Кубок Мира 2014-15. 1-й этап. Эстерсунд (Швеция) 1-й этап. Эстерсунд (Швеция) Мужчины. Гонка преслед Евроспорт (2014) SATRip sergej644 997 MB
Разное Биатлон. Кубок Мира 2014-15. 1-й этап. Эстерсунд (Швеция) 1-й этап. Эстерсунд (Швеция) Мужчины. Гонка преследования 12,5 (2014) HDTV 1080i sergej644 5.07 GB
Разное Биатлон. Кубок Мира 2014-15. 9-й этап. Ханты-Мансийск. Женщины. Гонка преследования 10 км [21.03] (2015) HDTV 1080i sergej644 3.94 GB
Разное Биатлон. Кубок Мира 2015-16. 3-й этап. Поклюка (Словения). Женщины. Гонка преследования 10 км [19.12] (2015) HDTV 1080i sergej644 3.23 GB
Показать сообщения:    

Текущее время: Сегодня 14:51

Часовой пояс: GMT



Вы не можете начинать темы
Вы не можете отвечать на сообщения
Вы не можете редактировать свои сообщения
Вы не можете удалять свои сообщения
Вы не можете голосовать в опросах
Вы не можете прикреплять файлы к сообщениям
Вы не можете скачивать файлы