ПРЕМЬЕРА! Таисия Повалий - Недолюбил / VA - «Новогодний Голубой огонек» (Эфир от 01.01.2015) [2015, Pop, HDTV 1080i] [Россия HD]

 
Автор Сообщение

sergej644 ®

Пол:

Стаж: 4 года 11 месяцев

Сообщений: 6046

Откуда: Soviet Union



Награды: Нет

Торрент-статистика

Создавать темы 03-Янв-2015 23:59

[Цитировать]

Таисия Повалий - Недолюбил / VA - «Новогодний Голубой огонек» (Эфир от 01.01.2015)
Год выпуска: 2015
Жанр: Pop
Продолжительность: 00:03:08
Перевод: Не требуется
Русские субтитры: нет
Выпущено: Россия, ВГТРК.
Описание: Традиционный новогодний «Голубой огонек» - фирменное блюдо телеканала «Россия». В эту праздничную ночь участники старого доброго «Голубого огонька» ждут всех в своей веселой компании!-В эту ночь, как всегда своим выступлением нас порадовала, неподражаемая, Таисия Повалий, исполнив песню - «Недолюбил».
Источник: nokia5150
Доп. информация: Рип чистый. Без посторонних надписей. Выкладывается как есть.

Качество: HDTV 1080i
Контейнер: TS
Видео кодек: AVC
Аудио кодек: MP2
Видео: 1920x1080 (16:9) 25.000 fps ~7 805 Kbps, 0.151 bit/pixel
Аудио: MPEG Audio 48000Hz stereo 2 channels 192 Кбит/сек

Скриншоты

Скринлист

Отчёт MediaInfo / BDInfo

Общее
Идентификатор : 1 (0x1)
Полное имя : F:\Компьютер\Таисия Повалий\Канал Ютуб\Клипы +\Канал ЮТУБА\Голубой Огонек на Шаболовке\Голубой огонек - 2015\Таисия Повалий - Недолюбил (2015, HDTV 1080i, Новогодний Голубой Огонек, Эфир от 01.01.2015) (by Nokia5150).ts
Формат : MPEG-TS
Размер файла : 189 Мбайт
Продолжительность : 3 м. 8 с.
Режим общего битрейта : Переменный
Общий поток : 8415 Кбит/сек
Видео
Идентификатор : 2292 (0x8F4)
Идентификатор меню : 1 (0x1)
Формат : AVC
Формат/Информация : Advanced Video Codec
Профиль формата : High@L4.0
Параметр CABAC формата : Да
Параметр ReFrames формата : 4 кадра
Идентификатор кодека : 27
Продолжительность : 3 м. 8 с.
Битрейт : 7805 Кбит/сек
Ширина : 1920 пикселей
Высота : 1080 пикселей
Соотношение сторон : 16:9
Частота кадров : 25,000 кадров/сек
Цветовое пространство : YUV
Субдискретизация насыщенности : 4:2:0
Битовая глубина : 8 бит
Тип развёртки : MBAFF
Порядок развёртки : Верхнее поле первое
Бит/(Пиксели*Кадры) : 0.151
Размер потока : 175 Мбайт (93%)
Аудио
Идентификатор : 2295 (0x8F7)
Идентификатор меню : 1 (0x1)
Формат : MPEG Audio
Версия формата : Version 1
Профиль формата : Layer 2
Режим : Joint stereo
Расширение режима : Intensity Stereo + MS Stereo
Идентификатор кодека : 3
Продолжительность : 3 м. 8 с.
Вид битрейта : Постоянный
Битрейт : 192 Кбит/сек
Каналы : 2 канала
Частота : 48,0 КГц
Метод сжатия : С потерями
Задержка видео : -672 мс.
Размер потока : 4,30 Мбайт (2%)
Язык : English
--
[Профиль] [ЛС]

Создавать темы 13-Авг-2015 12:07 (спустя 7 месяцев 9 дней)

Топик был перенесен из форума Видеоклипы в форум Наши клипы
sergej644
 
Кто просматривает тему:

Форум Тема Автор Размер
Фильмы (HD Rips | 720p, 1080p) Бешеный пес и Глори / Mad Dog and Glory (Джон МакНотон / John McNaughton) [1993, США, драма, мелодрама, комедия, криминал, BDRemux 1080p] MVO + 2х DVO (ОРТ, Премьер Видео) + AVO (Гаврилов) + Sub Eng... reversefile 19.64 GB
Юмористические фильмы и передачи КВН-2015. Премьер-лига. 1/4 финала. Игра первая [08.08] (2015) HDTVRip от GeneralFilm достали все 1.18 GB
ТВ - Шоу КВН-2015. Премьер-лига. 1/8 финала. Игра третья [01.08] (2015) HDTVRip от GeneralFilm достали все 1.14 GB
ТВ - Шоу КВН-2015. Премьер-лига. Первый полуфинал [22.08] (2015) HDTV 1080i от GeneralFilm sergej644 7 GB
ТВ - Шоу КВН-2015. Премьер-лига. Первый полуфинал [22.08] (2015) HDTVRip от GeneralFilm sergej644 1.07 GB
ТВ - Шоу КВН-2015. Премьер-лига. Финал [05.09] (2015) HDTVRip достали все 1.23 GB
ТВ - Шоу КВН-2016. Премьер-лига. 1/2 финала. Игра вторая [27.08] (2016) HDTVRip достали все 1.03 GB
ТВ - Шоу КВН-2016. Премьер-лига. 1/2 финала. Игра первая [12.08] (2016) HDTV 1080i достали все 5.33 GB
Показать сообщения:    

Текущее время: Сегодня 21:28

Часовой пояс: GMT



Вы не можете начинать темы
Вы не можете отвечать на сообщения
Вы не можете редактировать свои сообщения
Вы не можете удалять свои сообщения
Вы не можете голосовать в опросах
Вы не можете прикреплять файлы к сообщениям
Вы не можете скачивать файлы