Премия Дарвина / The Darwin Awards (Финн Тейлор / Finn Taylor) [2006, США, Комедия, приключения, DVDRip] DVO

 
Автор Сообщение

painkiller ®

Стаж: 2 года 3 месяца

Сообщений: 582



Награды: Нет

Торрент-статистика

Создавать темы 15-Авг-2014 01:09

[Цитировать]

Премия Дарвина / The Darwin Awards
Страна: США
Жанр: Комедия, приключения
Год выпуска: 2006
Продолжительность: 01:34:12
Перевод: Профессиональный (двухголосый закадровый)
Cубтитры: нет
Режиссер: Финн Тейлор / Finn Taylor
В ролях: Джозеф Файннс, Вайнона Райдер, Том Холландер, Джульетт Льюис, Дэвид Аркетт, Лукас Хаас, Джулианна Маргулис, Тим Блэйк Нельсон, Нора Данн, Тай Беррелл, Брэд Хант, Джеймс Хэтфилд, Ларс Ульрих, Кирк Хэмметт, Роберт Трухильо
Описание: Майкл — судебный детектив, немного боящийся вида крови. Его направили в помощь молодой Сири, работнице страховой компании, исследующей различные дорожные происшествия. Вместе они отправляются в небольшое путешествие, чтобы разобраться с делом потенциального номинанта на премию Дарвина.
Сэмпл: http://www.sendspace.com/file/av0oyv
Качество видео: DVDRip
Формат видео: AVI
Видео: XVID, 704x384, 1749 Кбит/с, 23,976 кадра/сек
Аудио: AC3, 6 ch, 448 Кбит/с, 48,0 КГц

MediaInfo

I:\Премия Дарвина\The.Darwin.Awards.2006.P2.DVDRip.FilmRus.avi
General
Complete name : I:\Премия Дарвина\The.Darwin.Awards.2006.P2.DVDRip.FilmRus.avi
Format : AVI
Format/Info : Audio Video Interleave
File size : 1.45 GiB
Duration : 1h 34mn
Overall bit rate : 2 207 Kbps
Writing application : VirtualDubMod 1.5.10.3 | www.virtualdub-fr.org || (build 2550/release)
Writing library : VirtualDubMod build 2550/release
Video #0
ID : 0
Format : MPEG-4 Visual
Format profile : Advanced Simple@L5
Format settings, BVOP : 2
Format settings, QPel : No
Format settings, GMC : No warppoints
Format settings, Matrix : Default (H.263)
Codec ID : XVID
Codec ID/Hint : XviD
Duration : 1h 34mn
Bit rate : 1 750 Kbps
Width : 704 pixels
Height : 384 pixels
Display aspect ratio : 1.85:1
Frame rate : 23.976 fps
Color space : YUV
Chroma subsampling : 4:2:0
Bit depth : 8 bits
Scan type : Progressive
Compression mode : Lossy
Bits/(Pixel*Frame) : 0.270
Stream size : 1.15 GiB (79%)
Writing library : XviD 64
Audio #1
ID : 1
Format : AC-3
Format/Info : Audio Coding 3
Mode extension : CM (complete main)
Format settings, Endianness : Big
Codec ID : 2000
Duration : 1h 34mn
Bit rate mode : Constant
Bit rate : 448 Kbps
Channel count : 6 channels
Channel positions : Front: L C R, Side: L R, LFE
Sampling rate : 48.0 KHz
Bit depth : 16 bits
Compression mode : Lossy
Stream size : 302 MiB (20%)
Alignment : Split accross interleaves
Interleave, duration : 42 ms (1.00 video frame)
Interleave, preload duration : 500 ms

Скриншот c названием фильма

Скриншоты

[Профиль] [ЛС]

Создавать темы 06-Авг-2015 23:11 (спустя 11 месяцев 22 дня)

Топик был перенесен из форума Фильмы до 2014 года в форум Фильмы до 2012 года
sergej644
 
Показать сообщения:    

Текущее время: Сегодня 20:26

Часовой пояс: GMT



Вы не можете начинать темы
Вы не можете отвечать на сообщения
Вы не можете редактировать свои сообщения
Вы не можете удалять свои сообщения
Вы не можете голосовать в опросах
Вы не можете прикреплять файлы к сообщениям
Вы не можете скачивать файлы