Прекрасный мир / Un mundo maravilloso / A Wonderful World (Луис Эстрада / Luis Estrada) [2006, Мексика, Драма, комедия, DVDRip] VO (PiterVV)

 
Автор Сообщение

TorrentFilm ®

Пол:

Стаж: 2 года

Сообщений: 7741



Награды: Нет

Торрент-статистика

Создавать темы 02-Дек-2015 00:09

[Цитировать]

Прекрасный мир / Un mundo maravilloso / A Wonderful World- Страна: Мексика
Жанр: Драма, комедия
Год выпуска: 2006
Продолжительность: 01:57:35-Перевод: Одноголосый закадровый [PiterVV]
Cубтитры: нет-Режиссер: Луис Эстрада / Luis Estrada-В ролях: Дамиан Алькасар, Антонио Серрано, Сесилия Суарес, Эрнесто Гомес Крус, Хесус Очоа, Сильверио Паласиос, Педро Армендарис мл., Карлос Арау, Хорхе Сарате, Гильермо Хиль-Описание: Одним дождливым вечером бомж по прозвищу гадский Перес случайно оказался на крыше мирового финансового центра. А толпа зевак и представителей «желтой» прессы почему-то решили, что бедняга хочет демонстративно совершить самоубийство, протестуя против политики правительства. Что тут началось. Ведь министр экономики только что заявил, что в их прекрасной стране с бедностью покончено и не осталось ни одного бедняка.-Благодарность: За русскую звуковую дорожку и описание фильма спасибо ronsy- -Sample | IMDB | КиноПоиск-Тип релиза: DVDRip
Формат видео: AVI-Видео: 704x384 (1.83:1), 23.976 fps, XviD build 50, 1645 kbps avg, 0.25 bit/pixel
Аудио: 44.100 kHz, MPEG Layer 3, 2 ch, 128.00 kbps avg [Russian_VO]-Релиз группы: -

MediaInfo

General
Complete name : D:\Мои релизы\Un mundo maravilloso_RG_All_Films.avi
Format : AVI
Format/Info : Audio Video Interleave
File size : 1.46 GiB
Duration : 1h 57mn
Overall bit rate : 1 783 Kbps
Writing application : VirtualDubMod 1.6.0.0 SURROUND (build 2560/release)
Writing library : VirtualDubMod build 2560/release
Video
ID : 0
Format : MPEG-4 Visual
Format profile : Advanced Simple@L5
Format settings, BVOP : Yes
Format settings, QPel : No
Format settings, GMC : No warppoints
Format settings, Matrix : Custom
Codec ID : XVID
Codec ID/Hint : XviD
Duration : 1h 57mn
Bit rate : 1 646 Kbps
Width : 704 pixels
Height : 384 pixels
Display aspect ratio : 16:9
Frame rate : 23.976 fps
Color space : YUV
Chroma subsampling : 4:2:0
Bit depth : 8 bits
Scan type : Progressive
Compression mode : Lossy
Bits/(Pixel*Frame) : 0.254
Stream size : 1.35 GiB (92%)
Writing library : XviD 1.2.1 (UTC 2008-12-04)
Audio
ID : 1
Format : MPEG Audio
Format version : Version 1
Format profile : Layer 3
Codec ID : 55
Codec ID/Hint : MP3
Duration : 1h 57mn
Bit rate mode : Constant
Bit rate : 128 Kbps
Channel(s) : 2 channels
Sampling rate : 44.1 KHz
Compression mode : Lossy
Stream size : 108 MiB (7%)
Alignment : Split accross interleaves
Interleave, duration : 42 ms (1.00 video frame)
Interleave, preload duration : 500 ms
Writing library : LAME3.98r
Encoding settings : -m s -V 4 -q 2 -lowpass 17 -b 128

Скриншоты

[Профиль] [ЛС]
Показать сообщения:    

Текущее время: Сегодня 06:23

Часовой пояс: GMT



Вы не можете начинать темы
Вы не можете отвечать на сообщения
Вы не можете редактировать свои сообщения
Вы не можете удалять свои сообщения
Вы не можете голосовать в опросах
Вы не можете прикреплять файлы к сообщениям
Вы не можете скачивать файлы