Прекрасный мир / Un mundo maravilloso (Луис Эстрада / Luis Estrada) [2006, Мексика, триллер, драма, комедия, DVDRip] VO (PiterVV)

 
Автор Сообщение

TorrentFilm ®

Пол:

Стаж: 2 года

Сообщений: 7741



Награды: Нет

Торрент-статистика

Создавать темы 07-Ноя-2015 00:10

[Цитировать]

Прекрасный мир / Un mundo maravilloso / Внимание! Ненормативная лексика.
Страна: Мексика
Жанр: триллер, драма, комедия
Год выпуска: 2006
Продолжительность: 01:57:36
Перевод: Одноголосый закадровый PiterVV
Cубтитры: нет
Оригинальная аудиодорожка: нет
Режиссер: Луис Эстрада / Luis Estrada
В ролях: Дамиан Алькасар, Антонио Серрано, Сесилия Суарес, Эрнесто Гомес Крус, Хесус Очоа, Сильверио Паласиос, Педро Армендарис мл., Карлос Арау, Хорхе Сарате, Гильермо Хиль
Описание: Одним дождливым вечером бомж по прозвищу гадский Перес случайно оказался на крыше мирового финансового центра. А толпа зевак и представителей «желтой» прессы почему-то решили, что бедняга хочет демонстративно совершить самоубийство, протестуя против политики правительства. Что тут началось. Ведь министр экономики только что заявил, что в их прекрасной стране с бедностью покончено и не осталось ни одного бедняка.
Едкая сатира от режиссера «Ада» и «Закона Ирода» Луиса Эстрады.
Перевод с английских субтитров, ненормативной лексики немного, но без нее здесь никуда.
Доп. информация: Закон Ирода: http://torrentfilm.net/forum/viewtopic.php?t=5096451
Сэмпл: http://multi-up.com/1074359
Качество видео: DVDRip
Формат видео: MKV
Видео: V_MS/VFW/FOURCC / FMP4, 704x480, 4:3, 29.970 Fps, 1957 Kbps
Аудио: A_MPEG/L3, 44.1 Khz, 256 Kbps, 2 ch., русский, озвучка PiterVV

MediaInfo

General
Unique ID : 217240833486057661254639044115802385425 (0xA36F1008E05F7675B949B7183F8C6C11)
Complete name : D:\Большой день\новый мир\Un.Mundo.Maravilloso.2006.PiterVV.mkv
Format : Matroska
Format version : Version 4 / Version 2
File size : 1.85 GiB
Duration : 1h 57mn
Overall bit rate : 2 258 Kbps
Encoded date : UTC 2015-11-05 11:01:44
Writing application : mkvmerge v8.2.0 ('World of Adventure') 64bit
Writing library : libebml v1.3.1 + libmatroska v1.4.2
DURATION : 01:57:35.543000000
NUMBER_OF_FRAMES : 270095
NUMBER_OF_BYTES : 225777371
_STATISTICS_WRITING_APP : mkvmerge v8.2.0 ('World of Adventure') 64bit
_STATISTICS_WRITING_DATE_UTC : 2015-11-05 11:01:44
_STATISTICS_TAGS : BPS DURATION NUMBER_OF_FRAMES NUMBER_OF_BYTES
Video
ID : 1
Format : MPEG-4 Visual
Format profile : Simple@L1
Format settings, BVOP : No
Format settings, QPel : No
Format settings, GMC : No warppoints
Format settings, Matrix : Default (H.263)
Codec ID : V_MS/VFW/FOURCC / FMP4
Duration : 1h 57mn
Bit rate : 1 957 Kbps
Width : 704 pixels
Height : 480 pixels
Display aspect ratio : 4:3
Frame rate mode : Constant
Frame rate : 29.970 fps
Standard : NTSC
Color space : YUV
Chroma subsampling : 4:2:0
Bit depth : 8 bits
Scan type : Progressive
Compression mode : Lossy
Bits/(Pixel*Frame) : 0.193
Stream size : 1.61 GiB (87%)
Writing library : Lavc54.23.100ф
Default : Yes
Forced : No
Audio
ID : 2
Format : MPEG Audio
Format version : Version 1
Format profile : Layer 3
Codec ID : A_MPEG/L3
Codec ID/Hint : MP3
Duration : 1h 57mn
Bit rate mode : Constant
Bit rate : 256 Kbps
Channel(s) : 2 channels
Sampling rate : 44.1 KHz
Compression mode : Lossy
Stream size : 215 MiB (11%)
Default : Yes
Forced : No

Скриншот c названием фильма

Скриншоты

[Профиль] [ЛС]
Показать сообщения:    

Текущее время: Сегодня 02:09

Часовой пояс: GMT



Вы не можете начинать темы
Вы не можете отвечать на сообщения
Вы не можете редактировать свои сообщения
Вы не можете удалять свои сообщения
Вы не можете голосовать в опросах
Вы не можете прикреплять файлы к сообщениям
Вы не можете скачивать файлы