Президент [2015, Документальный, HDTV 1080i]

 
Автор Сообщение

TorrentFilm ®

Пол:

Стаж: 2 года

Сообщений: 7741



Награды: Нет

Торрент-статистика

Создавать темы 07-Май-2015 00:03

[Цитировать]

Президент
-Год выпуска: 2015
Выпущено: Россия, телеканал Россия 1
Жанр: Документальный
Продолжительность: 02:31:10
Перевод: Не требуется-Описание: Фильм-интервью приурочен к 15-летию пребывания у власти Владимира Путина.
Картина охватывает период с августа 1999 года до сегодняшних дней и повествует о пути, который страна вместе с Президентом прошла за последние 15 лет.
Владимир Путин вспоминает о самых драматических моментах современной российской истории – войне в Чечне, гибели экипажа подводной лодки "Курск", теракте на Дубровке, Крыме…
Рассказ самого Президента, интервью с представителями политических и бизнес-элит страны, документальная хроника, уникальная съемка личных операторов Владимира Путина воссоздают и раскрывают подробности минувшего времени, повествуя о том, как менялось отношение к России и ее лидеру в стране и мире.
Экономические кризисы 2008 и 2014 года, Олимпиада в Сочи, формирование оппозиции, Болотная площадь и проспект Сахарова, Майдан…
Отвечая на вопросы Владимира Соловьева, Владимир Путин рассказывает о поворотных моментах большой политики, которые решали судьбу мира, и о том, куда Президент ведет Россию сегодня.-Качество: HDTV (1080i) [by olegka7373]
Формат: TS
Видео кодек: AVC
Аудио кодек: MP2
Видео: MPEG-4 AVC, 8244 Кбит/с, 1920x1080, 25 кадр/с
Аудио: MP2, 2 ch, 224 Кбит/с

Скриншоты


MediaInfo

Формат : MPEG-TSРазмер файла : 9,41 ГбайтПродолжительность : 2 ч. 31 м.Режим общего битрейта : ПеременныйОбщий поток : 8910 Кбит/сек
ВидеоИдентификатор : 41 (0x29)Идентификатор меню : 60 (0x3C)Формат : AVCФормат/Информация : Advanced Video CodecПрофиль формата : High@L4.0Параметр CABAC формата : ДаПараметр ReFrames формата : 3 кадраИдентификатор кодека : 27Продолжительность : 2 ч. 31 м.Битрейт : 8244 Кбит/секШирина : 1920 пикселейВысота : 1080 пикселейСоотношение сторон : 16:9Частота кадров : 25,000 кадров/секСтандарт вещания : ComponentЦветовое пространство : YUVСубдискретизация насыщенности : 4:2:0Битовая глубина : 8 битТип развёртки : ЧересстрочнаяПорядок развёртки : Верхнее поле первоеБит/(Пиксели*Кадры) : 0.159Размер потока : 8,70 Гбайт (93%)Основные цвета : BT.709Характеристики трансфера : BT.709Коэффициенты матрицы : BT.709colour_range : Limited
АудиоИдентификатор : 44 (0x2C)Идентификатор меню : 60 (0x3C)Формат : MPEG AudioВерсия формата : Version 1Профиль формата : Layer 2Идентификатор кодека : 3Продолжительность : 2 ч. 31 м.Вид битрейта : ПостоянныйБитрейт : 224 Кбит/секКаналы : 2 каналаЧастота : 48,0 КГцМетод сжатия : С потерямиЗадержка видео : -40 мс.Размер потока : 242 Мбайт (3%)Язык : Russian
[Профиль] [ЛС]
Кто просматривает тему:

Форум Тема Автор Размер
Внежанровая документалистика Выступление Президента РФ В.В. Путина на заседании Валдайского клуба (24.10.2014) SATRip sergej644 1.15 GB
Документальные HD Национальная Президентская библиотека (RTGHD) [2013, документальный, HDTVRip 1080i] TorrentFilm 809 MB
Документальные HD Новогоднее обращение президента Российской Федерации В.В. Путина (31.12.2014) [2014, Документальный, HDTV 1080i] (Первый HD +4) TorrentFilm 639 MB
Биографии и личности Президент (2015) HDTVRip от GeneralFilm достали все 2.17 GB
Документальные HD Президент (Саида Медведева) [2015, Документальный, HDTV 720p] TorrentFilm 4.43 GB
Зарубежные Президент Линкoльн: Охoтник на вaмпиров в 3Д / Abrаham Lincоln: Vаmpire Huntеr 3D (Тимур Бекмамбетов) [2012, Ужасы, Фэнтези, Боевик, Триллер, BDrip, 1080p] OverUnder / Вертикальная стереопара TorrentFilm 21.53 GB
Зарубежные Президент Линкольн: Охотник на вампиров в 3Д / Abraham Lincoln: Vampire Hunter 3D (Тимур Бекмамбетов) [2012, Ужасы, Фэнтези, Боевик, Триллер, BDrip-AVC] Half OverUnder / Вертикальная анам... TorrentFilm 11.5 GB
Документальные HD Пресс-конференция Президента РФ Владимира Путина [2014, Документальный, HDTV 1080i] TorrentFilm 15.86 GB
Показать сообщения:    

Текущее время: Сегодня 20:10

Часовой пояс: GMT



Вы не можете начинать темы
Вы не можете отвечать на сообщения
Вы не можете редактировать свои сообщения
Вы не можете удалять свои сообщения
Вы не можете голосовать в опросах
Вы не можете прикреплять файлы к сообщениям
Вы не можете скачивать файлы