Президент Линкoльн: Охoтник на вaмпиров в 3Д / Abrаham Lincоln: Vаmpire Huntеr 3D (Тимур Бекмамбетов) [2012, Ужасы, Фэнтези, Боевик, Триллер, BDrip, 1080p] OverUnder / Вертикальная стереопара

 
Автор Сообщение

TorrentFilm ®

Пол:

Стаж: 2 года

Сообщений: 7741



Награды: Нет

Торрент-статистика

Создавать темы 02-Янв-2016 00:00

[Цитировать]

Пpeзuдeнт Лuнкoльн: Oхoтнuк нa вaмпupoв / Аbrаhаm Linсоln: Vаmрirе Нuntеr
Год выпуска: 2012
Страна: США
Студия: 20th Century Fox, Dune Entertainment, Базелевс Продакшн, Tim Burton Productions
Жанр: Ужасы, Фэнтези, Боевик, Триллер
Продолжительность: 01:45:01
Перевод: Профессиональный (дублированный)
Русские субтитры: нет
Режиссер на русском: Тимур Бекмамбетов
В ролях: Бенджамин Уокер, Доминик Купер, Энтони Маки, Мэри Элизабет Уинстэд, Руфус Сьюэлл, Мартон Чокаш, Джимми Симпсон, Джозеф Моул, Робин МакЛиви, Эрин Уоссон
Описание: Сюжет фильма раскрывает тайную жизнь Величайшего Президента Америки Авраама Линкольна — любящего мужа и отца днем и беспощадного убийцу вампиров ночью. Армия кровопийц, которым он бросил вызов, растет с каждым днем. Сможет ли президент великой страны противостоять полчищам вампиров и спасти свою семью и народ от неминуемой гибели?..
Сэмпл: http://www.sendspace.com/file/52kc5q
Качество: BDrip
Контейнер: MKV
Формат 3D: OverUnder / Вертикальная стереопара
Порядок ракурсов: левый ракурс первый
Видео кодек: x264
Аудио кодек: DTS
Видео: AVC / 23,976 fps / 1920х1600 /26.0 Mbps
Аудио: Русский / DTS / 48 KHz / 5.1 ch / 755 Kbps
Аудио 2: Украинский / AC3 / 48 KHz / 5.1 ch / 448 Kbps
Аудио 3: Английский / DTS / 48 KHz / 5.1 ch / 1 510 Kbps
ВНИМАНИЕ ! :На встроенных ТВ-плейерах работать не будет!!!
Железные плееры на которых воспроизводятся полные стереопары:Popcorn C-200 , Dune HD Smart D1 , Dune HD DUO

MediaInfo

General
Unique ID : 219037111019405617792264055982842052587 (0xA4C9035ACFED778E92ED47608C1DFFEB)
Complete name : E:\видео\Abrаham Lincоln Vаmpire Huntеr.mkv
Format : Matroska
Format version : Version 2
File size : 21.5 GiB
Duration : 1h 45mn
Overall bit rate mode : Variable
Overall bit rate : 29.3 Mbps
Encoded date : UTC 2012-10-15 08:32:16
Writing application : mkvmerge v3.4.0 ('Rapunzel') сборка от May 15 2010 09:38:20
Writing library : libebml v0.8.0 + libmatroska v0.9.0
Video
ID : 1
Format : AVC
Format/Info : Advanced Video Codec
Format profile : High@L5.0
Format settings, CABAC : Yes
Format settings, ReFrames : 4 frames
Codec ID : V_MPEG4/ISO/AVC
Duration : 1h 45mn
Bit rate : 26.0 Mbps
Width : 1 920 pixels
Height : 1 600 pixels
Display aspect ratio : 1.200
Frame rate : 23.976 fps
Color space : YUV
Chroma subsampling : 4:2:0
Bit depth : 8 bits
Scan type : Progressive
Bits/(Pixel*Frame) : 0.353
Stream size : 19.0 GiB (88%)
Title : Rip by SeRoGa00
Writing library : x264 core 128 r2216kMod 198a7ea
Encoding settings : cabac=1 / ref=4 / deblock=1:-3:-3 / analyse=0x3:0x113 / me=umh / subme=9 / psy=1 / fade_compensate=0.00 / psy_rd=1.00:0.15 / mixed_ref=1 / me_range=16 / chroma_me=1 / trellis=2 / 8x8dct=1 / cqm=0 / deadzone=21,11 / fast_pskip=1 / chroma_qp_offset=-3 / threads=9 / lookahead_threads=1 / sliced_threads=0 / nr=0 / decimate=1 / interlaced=0 / bluray_compat=0 / constrained_intra=0 / bframes=6 / b_pyramid=2 / b_adapt=2 / b_bias=0 / direct=3 / weightb=1 / open_gop=0 / weightp=2 / keyint=250 / keyint_min=23 / scenecut=40 / intra_refresh=0 / rc_lookahead=60 / rc=crf / mbtree=1 / crf=18.0000 / qcomp=0.60 / qpmin=1 / qpmax=61 / qpstep=4 / vbv_maxrate=40000 / vbv_bufsize=40000 / crf_max=0.0 / nal_hrd=none / ip_ratio=1.40 / aq=1:1.00
Language : English
Default : Yes
Forced : No
Audio #1
ID : 2
Format : DTS
Format/Info : Digital Theater Systems
Codec ID : A_DTS
Duration : 1h 45mn
Bit rate mode : Constant
Bit rate : 755 Kbps
Channel(s) : 6 channels
Channel positions : Front: L C R, Side: L R, LFE
Sampling rate : 48.0 KHz
Bit depth : 24 bits
Compression mode : Lossy
Stream size : 567 MiB (3%)
Language : Russian
Default : Yes
Forced : No
Audio #2
ID : 3
Format : AC-3
Format/Info : Audio Coding 3
Mode extension : CM (complete main)
Format settings, Endianness : Big
Codec ID : A_AC3
Duration : 1h 45mn
Bit rate mode : Constant
Bit rate : 448 Kbps
Channel(s) : 6 channels
Channel positions : Front: L C R, Side: L R, LFE
Sampling rate : 48.0 KHz
Bit depth : 16 bits
Compression mode : Lossy
Stream size : 336 MiB (2%)
Language : Ukrainian
Default : No
Forced : No
Audio #3
ID : 4
Format : DTS
Format/Info : Digital Theater Systems
Format profile : MA / Core
Codec ID : A_DTS
Duration : 1h 45mn
Bit rate mode : Variable
Bit rate : 1 597 Kbps / 1 510 Kbps
Channel(s) : 8 channels / 6 channels
Channel positions : Front: L C R, Side: L R, Back: L R, LFE / Front: L C R, Side: L R, LFE
Sampling rate : 48.0 KHz
Bit depth : 24 bits
Compression mode : Lossless / Lossy
Language : English
Default : No
Forced : No

Скриншоты


[Профиль] [ЛС]
Кто просматривает тему:

Форум Тема Автор Размер
Внежанровая документалистика Выступление Президента РФ В.В. Путина на заседании Валдайского клуба (24.10.2014) SATRip sergej644 1.15 GB
Документальные HD Национальная Президентская библиотека (RTGHD) [2013, документальный, HDTVRip 1080i] TorrentFilm 809 MB
Документальные HD Новогоднее обращение президента Российской Федерации В.В. Путина (31.12.2014) [2014, Документальный, HDTV 1080i] (Первый HD +4) TorrentFilm 639 MB
Биографии и личности Президент (2015) HDTVRip от GeneralFilm достали все 2.17 GB
Документальные HD Президент (Саида Медведева) [2015, Документальный, HDTV 720p] TorrentFilm 4.43 GB
Документальные HD Президент [2015, Документальный, HDTV 1080i] TorrentFilm 9.41 GB
Зарубежные Президент Линкольн: Охотник на вампиров в 3Д / Abraham Lincoln: Vampire Hunter 3D (Тимур Бекмамбетов) [2012, Ужасы, Фэнтези, Боевик, Триллер, BDrip-AVC] Half OverUnder / Вертикальная анам... TorrentFilm 11.5 GB
Документальные HD Пресс-конференция Президента РФ Владимира Путина [2014, Документальный, HDTV 1080i] TorrentFilm 15.86 GB
Показать сообщения:    

Текущее время: Сегодня 06:07

Часовой пояс: GMT



Вы не можете начинать темы
Вы не можете отвечать на сообщения
Вы не можете редактировать свои сообщения
Вы не можете удалять свои сообщения
Вы не можете голосовать в опросах
Вы не можете прикреплять файлы к сообщениям
Вы не можете скачивать файлы