Прежде чем я усну / Before I Go to Sleep (Роуэн Жоффе / Rowan Joffe) [2014, Великобритания, Франция, Швеция, триллер, детектив, драма, BDRip-AVC] Dub + Original (Eng) + Subs (Eng)

 
Автор Сообщение

TorrentFilm ®

Пол:

Стаж: 2 года

Сообщений: 7741



Награды: Нет

Торрент-статистика

Создавать темы 14-Янв-2015 00:00

[Цитировать]

Прежде чем я усну / Before I Go to Sleep«Никому не доверяй»- Страна: Великобритания, Франция, Швеция
Жанр: триллер, детектив, драма
Год выпуска: 2014
Продолжительность: 01:31:52-Перевод: Профессиональный (дублированный)
Оригинальная аудиодорожка: English
Cубтитры: English (full)
Навигация по главам: присутствует - 12 глав-Режиссер: Роуэн Жоффе / Rowan Joffe
В ролях: Николь Кидман, Колин Ферт, Марк Стронг, Энн-Мэри Дафф, Дин-Чарльз Чепмен, Джин Лу, Адам Леви, Льюэлла Гидеон, Чарли Гарднер, Рози Макферсон, Кевин Хадсон-Описание: История о женщине, потерявшей память: каждое утро последние двадцать лет просто исчезают из ее воспоминаний, и каждое утро ей приходится по крупицам восстанавливать собственную жизнь.-
Download sample-Качество видео: BDRip-AVC | исх. BDRemux 1080p - thx: Talian70
Формат: MKV-Видео: 1 120x476 (2.35:1), 24.000 fps, H.264 ~3564 kbps avg, 0.272 bit/pixel
Аудио №1: 48.0 kHz, AC3 Dolby Digital, 3/2 (L,C,R,l,r) + LFE ch, ~448 kbps | Профессиональный (дублированный)
Аудио №2: 48.0 kHz, AC3 Dolby Digital, 3/2 (L,C,R,l,r) + LFE ch, ~448 kbps | English-

MediaInfo

General
Unique ID : 248760292752161389246437834000770806009 (0xBB257D5B9383593C95A76EBF1AC030F9)
Complete name : D:\Фильмы\Рипы\Before I Go to Sleep.2014.BDRip-AVC.eFK tRuAVC.mkv
Format : Matroska
Format version : Version 4 / Version 2
File size : 2.86 GiB
Duration : 1h 31mn
Overall bit rate : 4 463 Kbps
Movie name : Прежде чем я усну / Before I Go to Sleep (2014) - Release for rutracker
Encoded date : UTC 2015-01-13 09:27:10
Writing application : mkvmerge v7.2.0 ('On Every Street') 64bit built on Sep 13 2014 15:52:10
Writing library : libebml v1.3.0 + libmatroska v1.4.1
DURATION : 01:31:52.064000000
NUMBER_OF_FRAMES : 172252
NUMBER_OF_BYTES : 308675584
_STATISTICS_WRITING_APP : mkvmerge v7.2.0 ('On Every Street') 64bit built on Sep 13 2014 15:52:10
_STATISTICS_WRITING_DATE_UTC : 2015-01-13 09:27:10
_STATISTICS_TAGS : BPS DURATION NUMBER_OF_FRAMES NUMBER_OF_BYTES
Attachment : Yes
Video
ID : 1
Format : AVC
Format/Info : Advanced Video Codec
Format profile : High@L4.1
Format settings, CABAC : Yes
Format settings, ReFrames : 14 frames
Codec ID : V_MPEG4/ISO/AVC
Duration : 1h 31mn
Bit rate : 3 478 Kbps
Width : 1 120 pixels
Height : 476 pixels
Display aspect ratio : 2.35:1
Frame rate mode : Constant
Frame rate : 24.000 fps
Color space : YUV
Chroma subsampling : 4:2:0
Bit depth : 8 bits
Scan type : Progressive
Bits/(Pixel*Frame) : 0.272
Stream size : 2.23 GiB (78%)
Title : eFK tRuAVC
Writing library : x264 core 144 r2525kMod 40bb568
Encoding settings : cabac=1 / ref=14 / deblock=1:-2:-2 / analyse=0x3:0x133 / me=umh / subme=11 / psy=1 / fade_compensate=0.00 / psy_rd=1.00:0.00 / mixed_ref=1 / me_range=48 / chroma_me=1 / trellis=2 / 8x8dct=1 / cqm=0 / deadzone=21,11 / fast_pskip=0 / chroma_qp_offset=-2 / threads=12 / lookahead_threads=3 / sliced_threads=0 / nr=0 / decimate=1 / interlaced=0 / bluray_compat=0 / constrained_intra=0 / fgo=0 / bframes=16 / b_pyramid=2 / b_adapt=2 / b_bias=0 / direct=3 / weightb=1 / open_gop=0 / weightp=2 / keyint=250 / keyint_min=24 / scenecut=40 / intra_refresh=0 / rc_lookahead=60 / rc=crf / mbtree=0 / crf=19.6000 / qcomp=0.70 / qpmin=0 / qpmax=69 / qpstep=4 / vbv_maxrate=50000 / vbv_bufsize=62500 / crf_max=0.0 / nal_hrd=none / filler=0 / ip_ratio=1.25 / pb_ratio=1.15 / aq=3:0.85
Language : English
Default : Yes
Forced : No
Color primaries : BT.709
Transfer characteristics : BT.709
Matrix coefficients : BT.709
DURATION : 01:31:52.042000000
NUMBER_OF_FRAMES : 132289
NUMBER_OF_BYTES : 2455879903
_STATISTICS_WRITING_APP : mkvmerge v7.2.0 ('On Every Street') 64bit built on Sep 13 2014 15:52:10
_STATISTICS_WRITING_DATE_UTC : 2015-01-13 09:27:10
_STATISTICS_TAGS : BPS DURATION NUMBER_OF_FRAMES NUMBER_OF_BYTES
Audio #1
ID : 2
Format : AC-3
Format/Info : Audio Coding 3
Mode extension : CM (complete main)
Format settings, Endianness : Big
Codec ID : A_AC3
Duration : 1h 31mn
Bit rate mode : Constant
Bit rate : 448 Kbps
Channel count : 6 channels
Channel positions : Front: L C R, Side: L R, LFE
Sampling rate : 48.0 KHz
Bit depth : 16 bits
Compression mode : Lossy
Stream size : 294 MiB (10%)
Title : Dub
Language : Russian
Default : Yes
Forced : No
Audio #2
ID : 3
Format : AC-3
Format/Info : Audio Coding 3
Mode extension : CM (complete main)
Format settings, Endianness : Big
Codec ID : A_AC3
Duration : 1h 31mn
Bit rate mode : Constant
Bit rate : 448 Kbps
Channel count : 6 channels
Channel positions : Front: L C R, Side: L R, LFE
Sampling rate : 48.0 KHz
Bit depth : 16 bits
Compression mode : Lossy
Stream size : 294 MiB (10%)
Language : English
Default : No
Forced : No
Text
ID : 4
Format : UTF-8
Codec ID : S_TEXT/UTF8
Codec ID/Info : UTF-8 Plain Text
Title : full
Language : English
Default : No
Forced : No
Menu
00:00:00.000 : en:00:00:00.000
00:08:30.500 : en:00:08:30.500
00:14:14.458 : en:00:14:14.458
00:21:55.542 : en:00:21:55.542
00:28:16.458 : en:00:28:16.458
00:34:40.083 : en:00:34:40.083
00:41:49.042 : en:00:41:49.042
00:49:32.875 : en:00:49:32.875
00:57:15.542 : en:00:57:15.542
01:04:23.333 : en:01:04:23.333
01:09:27.458 : en:01:09:27.458
01:18:11.250 : en:01:18:11.250

x264 log

x264 [info]: frame I:755 Avg QP:16.39 size: 59030
x264 [info]: frame P:22679 Avg QP:18.08 size: 29758
x264 [info]: frame B:108855 Avg QP:19.09 size: 15952
x264 [info]: consecutive B-frames: 1.3% 1.6% 3.3% 8.7% 15.4% 29.2% 10.9% 4.8% 8.2% 5.2% 1.9% 0.9% 2.5% 3.1% 1.7% 0.7% 0.7%
x264 [info]: mb I I16..4: 8.5% 80.5% 11.1%
x264 [info]: mb P I16..4: 0.5% 11.6% 0.8% P16..4: 28.6% 35.0% 14.4% 1.5% 0.1% skip: 7.4%
x264 [info]: mb B I16..4: 0.0% 2.0% 0.1% B16..8: 39.0% 22.4% 5.0% direct: 7.1% skip:24.3% L0:46.4% L1:45.7% BI: 7.9%
x264 [info]: 8x8 transform intra:90.7% inter:58.9%
x264 [info]: direct mvs spatial:99.9% temporal:0.1%
x264 [info]: coded y,uvDC,uvAC intra: 92.9% 85.9% 69.0% inter: 37.9% 26.2% 6.7%
x264 [info]: i16 v,h,dc,p: 36% 13% 10% 41%
x264 [info]: i8 v,h,dc,ddl,ddr,vr,hd,vl,hu: 8% 6% 11% 11% 14% 14% 13% 12% 12%
x264 [info]: i4 v,h,dc,ddl,ddr,vr,hd,vl,hu: 12% 7% 9% 9% 15% 14% 13% 11% 12%
x264 [info]: i8c dc,h,v,p: 47% 19% 15% 19%
x264 [info]: Weighted P-Frames: Y:5.6% UV:3.5%
x264 [info]: ref P L0: 40.7% 8.2% 18.1% 7.5% 6.0% 4.5% 3.9% 2.2% 2.0% 1.7% 1.5% 1.3% 1.2% 1.1% 0.1% 0.0%
x264 [info]: ref B L0: 61.8% 14.2% 7.9% 4.0% 3.1% 2.4% 2.1% 1.2% 1.1% 0.9% 0.8% 0.4% 0.1%
x264 [info]: ref B L1: 88.6% 11.4%
x264 [info]: kb/s:3564.38
x264 [total]: encoded 132289 frames, 7.42 fps, 3564.39 kb/s, duration 4:57:20.40
ComparisonSource

Encode

BD Rus

BD UK
http://torrentfilm.net/forum/viewtopic.php?t=4883489 http://screenshotcomparison.com/comparison/109098
[Профиль] [ЛС]
Показать сообщения:    

Текущее время: Сегодня 16:34

Часовой пояс: GMT



Вы не можете начинать темы
Вы не можете отвечать на сообщения
Вы не можете редактировать свои сообщения
Вы не можете удалять свои сообщения
Вы не можете голосовать в опросах
Вы не можете прикреплять файлы к сообщениям
Вы не можете скачивать файлы