Прежде чем я усну / Before I Go to Sleep (Роуэн Жоффе / Rowan Joffe) [2014, Великобритания, Франция, Швеция, триллер, детектив, драма, BDRip] Dub BD

 
Автор Сообщение

TorrentFilm ®

Пол:

Стаж: 2 года

Сообщений: 7741



Награды: Нет

Торрент-статистика

Создавать темы 12-Янв-2015 00:00

[Цитировать]

Прежде чем я усну / Before I Go to Sleep
«Никому не доверяй»
-Страна: Великобритания, Франция, Швеция / Clarius Entertainment, Filmgate Films, Millennium Films...
Жанр: триллер, детектив, драма
Год выпуска: 2014
Продолжительность: 01:31:52
Перевод: Профессиональный (дублированный) лицензия BD
Cубтитры: нет
Режиссёр: Роуэн Жоффе / Rowan Joffe
В ролях: Николь Кидман, Колин Фёрт, Марк Стронг, Бен Кромптон, Энн-Мэри Дафф, Адам Леви, Гэбриел Стронг, Флинн МакАртур, Дин-Чарльз Чепмен, Ханна Блэмайерс, Крис Коулин, Льюэлла Гидеон, Кевин Хадсон, Джин Лу, Рози Макферсон.
Описание: История о женщине, потерявшей память: каждое утро последние двадцать лет просто исчезают из ее воспоминаний, и каждое утро ей приходится по крупицам восстанавливать собственную жизнь.-Рейтинг
imdb.com: 6.20 (10 937)
kinopoisk.ru: 6.504 (10 661)
MPAA: - лицам до 17 лет обязательно присутствие взрослого-Сэмпл: http://multi-up.com/1025739-Качество видео: BDRip [Before.I.Go.to.Sleep.2014.BDREMUX / BLUEBIRD]
Формат видео: AVI
Видео: XviD build 65, 720x304 (2.37:1), 24.000 fps, ~1821 kbps avg, 0.347 bit/pixel
Аудио: 48 kHz, AC3 Dolby Digital, 3/2 (L,C,R,l,r) + LFE ch, ~448 kbps avg (Dub)
-

MediaInfo

Общее
Полное имя : D:\Before.I.Go.to.Sleep.2014.UK-Transfer.Dub.BDRip.1,46Gb.XviD.AC3.avi
Формат : AVI
Формат/Информация : Audio Video Interleave
Размер файла : 1,46 Гбайт
Продолжительность : 1 ч. 31 м.
Общий поток : 2279 Кбит/сек
Название фильма : Before I Go to Sleep 2014. [UK-Transfer]
Режиссёр : Rowan Joffe
Дата записи : 10.01.2015
Программа кодирования : VirtualDubModRus 1.5.10.2 (build 2542/release)
Библиотека кодирования : VirtualDubMod build 2542/release
Правообладатель : Rutracker.org
Примечание : BDRip by MooN_WalkeR
Видео
Идентификатор : 0
Формат : MPEG-4 Visual
Профиль формата : Advanced Simple@L5
Параметр BVOP формата : 1
Параметр QPel формата : Нет
Параметр GMC формата : Без точки перехода
Параметр матрицы формата : Выборочная
Идентификатор кодека : XVID
Идентификатор кодека/Подсказка : XviD
Продолжительность : 1 ч. 31 м.
Битрейт : 1821 Кбит/сек
Ширина : 720 пикселей
Высота : 304 пикселя
Соотношение сторон : 2,35:1
Частота кадров : 24,000 кадра/сек
Цветовое пространство : YUV
Субдискретизация насыщенности : 4:2:0
Битовая глубина : 8 бит
Тип развёртки : Прогрессивная
Метод сжатия : С потерями
Бит/(Пиксели*Кадры) : 0.347
Размер потока : 1,17 Гбайт (80%)
Библиотека кодирования : XviD 65
Аудио
Идентификатор : 1
Формат : AC-3
Формат/Информация : Audio Coding 3
Расширение режима : CM (complete main)
Параметр Endianness формата : Big
Идентификатор кодека : 2000
Продолжительность : 1 ч. 31 м.
Вид битрейта : Постоянный
Битрейт : 448 Кбит/сек
Каналы : 6 каналов
Расположение каналов : Front: L C R, Side: L R, LFE
Частота : 48,0 КГц
Битовая глубина : 16 бит
Метод сжатия : С потерями
Размер потока : 294 Мбайт (20%)
Выравнивание : Разделение по промежуткам
Продолжительность промежутка : 42 мс. (1,00 видеокадр)
Время предзагрузки промежутка : 500 мс.
Заголовок : Dub
[Профиль] [ЛС]
Кто просматривает тему:

Форум Тема Автор Размер
Фантастика и фэнтези Джо Аберкромби - Первый Закон 2. Прежде чем их повесят (2016) MP3 Swager 800 MB
Отечественные мультфильмы Прежде мы были птицами (Гарри Бардин) [1982 г., Мультфильм, цыганская притча, DVDRip] TorrentFilm 293 MB
Трейлеры Прежде чем мы расстанемся / Before We Go (2015) WEBRip 1080p | Трейлер BOSS 75 MB
Фильмы (HD Rips | 720p, 1080p) Прежде чем я уйду / Just Before I Go (2014) BDRip 1080p | P BOSS 7.5 GB
Фильмы 2014 года Прежде чем я уйду / Just Before I Go (Кортни Кокс) [2014, драма, комедия] HDRip | L1 BOSS 1.37 GB
Фильмы 2014 года Прежде чем я усну / Before I Go to Sleep (2014) BDRip от HQCLUB | UK Transfer | Лицензия sergej644 1.45 GB
Фильмы (HD DVD, Blu-ray и BDRemux) Прежде чем я усну / Before I Go to Sleep (2014) Blu-Ray 1080i | Rus Transfer | Лицензия Russian Mafia 16.32 GB
Фильмы 2014 года Прежде чем я усну / Before I Go to Sleep (Роуэн Жоффе / Rowan Joffe) [2014, Великобритания, Франция, Швеция, триллер, детектив, драма, BDRip-AVC] Dub + Original (Eng) + Subs (Eng) TorrentFilm 2.86 GB
Показать сообщения:    

Текущее время: Сегодня 02:24

Часовой пояс: GMT



Вы не можете начинать темы
Вы не можете отвечать на сообщения
Вы не можете редактировать свои сообщения
Вы не можете удалять свои сообщения
Вы не можете голосовать в опросах
Вы не можете прикреплять файлы к сообщениям
Вы не можете скачивать файлы