Прежде чем я усну / Before I Go to Sleep (Роуэн Жоффе) [2014, Великобритания, Франция, Швеция, Триллер, детектив, драма, WEB-DLRip] Dub (iTunes)

 
Автор Сообщение

TorrentFilm ®

Пол:

Стаж: 2 года 7 месяцев

Сообщений: 7764



Награды: Нет

Торрент-статистика

Создавать темы 21-Дек-2014 02:01

[Цитировать]

Прежде чем я усну / Before I Go to Sleep
Страна: Великобритания, Франция, Швеция
Жанр: Триллер, детектив, драма
Год выпуска: 2014
Продолжительность: 01:28:17
Перевод: Профессиональный (дублированный) iTunes
Cубтитры: нет
Режиссер: Роуэн Жоффе / Rowan Joffe
В ролях: Николь Кидман, Колин Фёрт, Марк Стронг, Бен Кромптон, Энн-Мэри Дафф, Адам Леви, Гэбриел Стронг, Флинн МакАртур, Дин-Чарльз Чепмен, Ханна Блэмайерс...
Описание: История о женщине, потерявшей память: каждое утро последние двадцать лет просто исчезают из ее воспоминаний, и каждое утро ей приходится по крупицам восстанавливать собственную жизнь.
Сэмпл: http://multi-up.com/1016762
Качество видео: WEBRip
Формат видео: AVI
Видео: 688x288 (2.39:1), 25 fps, XviD build 73 ~1040 kbps avg, 0.21 bit/pixel
Аудио: 48 kHz, MPEG Layer 3, 2 ch, ~128.00 kbps avg

MediaInfo

Формат : AVI
Формат/Информация : Audio Video Interleave
Размер файла : 744 Мбайт
Продолжительность : 1 ч. 28 м.
Общий поток : 1178 Кбит/сек
Программа кодирования : VirtualDubMod 1.5.10.3 | www.virtualdub-fr.org || (build 2550/release)
Библиотека кодирования : VirtualDubMod build 2550/release
Видео
Идентификатор : 0
Формат : MPEG-4 Visual
Профиль формата : Advanced Simple@L5
Параметр BVOP формата : 2
Параметр QPel формата : Нет
Параметр GMC формата : Без точки перехода
Параметр матрицы формата : Выборочная
Идентификатор кодека : XVID
Идентификатор кодека/Подсказка : XviD
Продолжительность : 1 ч. 28 м.
Битрейт : 1040 Кбит/сек
Ширина : 688 пикселей
Высота : 288 пикселей
Соотношение сторон : 2,40:1
Частота кадров : 25,000 кадров/сек
Цветовое пространство : YUV
Субдискретизация насыщенности : 4:2:0
Битовая глубина : 8 бит
Тип развёртки : Прогрессивная
Метод сжатия : С потерями
Бит/(Пиксели*Кадры) : 0.210
Размер потока : 657 Мбайт (88%)
Библиотека кодирования : XviD 73
Аудио
Идентификатор : 1
Формат : MPEG Audio
Версия формата : Version 1
Профиль формата : Layer 3
Идентификатор кодека : 55
Идентификатор кодека/Подсказка : MP3
Продолжительность : 1 ч. 28 м.
Вид битрейта : Постоянный
Битрейт : 128 Кбит/сек
Каналы : 2 канала
Частота : 48,0 КГц
Метод сжатия : С потерями
Размер потока : 80,8 Мбайт (11%)
Выравнивание : Соединение по промежуткам
Продолжительность промежутка : 40 мс. (1,00 видеокадр)
Время предзагрузки промежутка : 504 мс.
Библиотека кодирования : LAME3.99r
Настройки программы : -m s -V 4 -q 2 -lowpass 17 -b 128

Скриншоты

[Профиль] [ЛС]
Показать сообщения:    

Текущее время: Сегодня 16:19

Часовой пояс: GMT



Вы не можете начинать темы
Вы не можете отвечать на сообщения
Вы не можете редактировать свои сообщения
Вы не можете удалять свои сообщения
Вы не можете голосовать в опросах
Вы не можете прикреплять файлы к сообщениям
Вы не можете скачивать файлы