Прежде чем я усну / Before I Go to Sleep (Роуэн Жоффе / Rowan Joffe) [2014, Великобритания, Франция, Швеция, Триллер, детектив, драма, WEB-DLRip-AVC] Dub

 
Автор Сообщение

TorrentFilm ®

Пол:

Стаж: 2 года

Сообщений: 7741



Награды: Нет

Торрент-статистика

Создавать темы 20-Дек-2014 02:02

[Цитировать]

Прежде чем я уснуBefore I Go to Sleep«Никому не доверяй»
Страна: Великобритания, Франция, Швеция
Жанр: Триллер, детектив, драма
Год выпуска: 2014
Продолжительность: 01:28:17
Перевод: Профессиональный (дублированный) iTunes
Cубтитры: нет
Оригинальная аудиодорожка: нет
Режиссер: Роуэн Жоффе / Rowan Joffe
В ролях: Николь Кидман, Колин Фёрт, Марк Стронг, Бен Кромптон, Энн-Мэри Дафф, Адам Леви, Гэбриел Стронг, Флинн МакАртур, Дин-Чарльз Чепмен, Ханна Блэмайерс...
Описание: История о женщине, потерявшей память: каждое утро последние двадцать лет просто исчезают из ее воспоминаний, и каждое утро ей приходится по крупицам восстанавливать собственную жизнь.
Доп. информация:
Релиз группы:
Качество видео: WEB-DLRip-AVC |Прежде чем я усну / Before I Go to Sleep (2014) Web DL 720p| HD club
Формат видео: MKV
Видео: 1056x440 (2:35:1), 25,00 fps, 1974 Кbps, 0.170 bit/pixe
Аудио: 48 kHz, AC3 Dolby Digital, 3/2 (L,C,R,l,r) + LFE ch, ~384.00 kbps avg |DUB

MediaInfo

General
Unique ID : 244402361276826440198211921686222616008 (0xB7DE2EBF47A3AA729604695C8FD835C8)
Complete name : E:\Мои рипы\Прежде чем я усну\Прежде чем я усну by_IVAN@190282.mkv
Format : Matroska
Format version : Version 4 / Version 2
File size : 1.45 GiB
Duration : 1h 28mn
Overall bit rate : 2 358 Kbps
Encoded date : UTC 2014-12-02 23:20:00
Writing application : mkvmerge v7.0.0 ('Where We Going') 64bit built on Jun 9 2014 15:16:27
Writing library : libebml v1.3.0 + libmatroska v1.4.1
DURATION : 01:28:17.376000000
NUMBER_OF_FRAMES : 165543
NUMBER_OF_BYTES : 254274048
_STATISTICS_WRITING_APP : mkvmerge v7.0.0 ('Where We Going') 64bit built on Jun 9 2014 15:16:27
_STATISTICS_WRITING_DATE_UTC : 2014-12-02 23:20:00
_STATISTICS_TAGS : BPS DURATION NUMBER_OF_FRAMES NUMBER_OF_BYTES
Video
ID : 1
Format : AVC
Format/Info : Advanced Video Codec
Format profile : High@L4.1
Format settings, CABAC : Yes
Format settings, ReFrames : 13 frames
Codec ID : V_MPEG4/ISO/AVC
Duration : 1h 28mn
Bit rate : 1 974 Kbps
Width : 1 056 pixels
Height : 440 pixels
Original display aspect ratio : 2.35:1
Frame rate mode : Constant
Frame rate : 25.000 fps
Color space : YUV
Chroma subsampling : 4:2:0
Bit depth : 8 bits
Scan type : Progressive
Bits/(Pixel*Frame) : 0.170
Stream size : 1.19 GiB (82%)
Writing library : x264 core 142 r2491kMod 24e4fed
Encoding settings : cabac=1 / ref=13 / deblock=1:-3:-3 / analyse=0x3:0x113 / me=umh / subme=11 / psy=1 / fade_compensate=0.00 / psy_rd=1.00:0.15 / mixed_ref=1 / me_range=48 / chroma_me=1 / trellis=2 / 8x8dct=1 / cqm=0 / deadzone=21,11 / fast_pskip=0 / chroma_qp_offset=0 / threads=6 / lookahead_threads=6 / sliced_threads=0 / slices=10 / nr=0 / decimate=1 / interlaced=0 / bluray_compat=0 / constrained_intra=0 / fgo=0 / bframes=16 / b_pyramid=2 / b_adapt=2 / b_bias=0 / direct=3 / weightb=1 / open_gop=1 / weightp=2 / keyint=240 / keyint_min=23 / scenecut=40 / intra_refresh=0 / rc_lookahead=40 / rc=2pass / mbtree=0 / bitrate=1974 / ratetol=1.0 / qcomp=0.60 / qpmin=0 / qpmax=69 / qpstep=4 / cplxblur=20.0 / qblur=0.5 / vbv_maxrate=50000 / vbv_bufsize=62500 / nal_hrd=none / filler=0 / ip_ratio=1.40 / pb_ratio=1.30 / aq=1:1.00
Default : Yes
Forced : No
Color primaries : BT.709
Transfer characteristics : BT.709
Matrix coefficients : BT.709
Audio
ID : 2
Format : AC-3
Format/Info : Audio Coding 3
Mode extension : CM (complete main)
Format settings, Endianness : Big
Codec ID : A_AC3
Duration : 1h 28mn
Bit rate mode : Constant
Bit rate : 384 Kbps
Channel(s) : 6 channels
Channel positions : Front: L C R, Side: L R, LFE
Sampling rate : 48.0 KHz
Bit depth : 16 bits
Compression mode : Lossy
Stream size : 242 MiB (16%)
Title : Dub
Default : Yes
Forced : No

x264 log

VIDEO ENCODING
x264 [info]: frame I:800 Avg QP:14.17 size: 54113
x264 [info]: frame P:33637 Avg QP:16.48 size: 19241
x264 [info]: frame B:97997 Avg QP:18.29 size: 6266
x264 [info]: consecutive B-frames: 2.0% 4.3% 8.1% 57.6% 9.3% 14.4% 1.9% 1.1% 0.1% 0.1% 0.1% 0.1% 0.0% 0.1% 0.0% 0.1% 0.7%
x264 [info]: kb/s:1970.11
x264 [total]: encoded 132434 frames, 1.51 fps, 1970.11 kb/s, duration 24:21:04.25

Скриншот c названием фильма

Скриншоты

[Профиль] [ЛС]
Кто просматривает тему:

Форум Тема Автор Размер
Фантастика и фэнтези Джо Аберкромби - Первый Закон 2. Прежде чем их повесят (2016) MP3 Swager 800 MB
Отечественные мультфильмы Прежде мы были птицами (Гарри Бардин) [1982 г., Мультфильм, цыганская притча, DVDRip] TorrentFilm 293 MB
Трейлеры Прежде чем мы расстанемся / Before We Go (2015) WEBRip 1080p | Трейлер BOSS 75 MB
Фильмы (HD Rips | 720p, 1080p) Прежде чем я уйду / Just Before I Go (2014) BDRip 1080p | P BOSS 7.5 GB
Фильмы 2014 года Прежде чем я уйду / Just Before I Go (Кортни Кокс) [2014, драма, комедия] HDRip | L1 BOSS 1.37 GB
Фильмы 2014 года Прежде чем я усну / Before I Go to Sleep (2014) BDRip от HQCLUB | UK Transfer | Лицензия sergej644 1.45 GB
Фильмы (HD DVD, Blu-ray и BDRemux) Прежде чем я усну / Before I Go to Sleep (2014) Blu-Ray 1080i | Rus Transfer | Лицензия Russian Mafia 16.32 GB
Фильмы 2014 года Прежде чем я усну / Before I Go to Sleep (Роуэн Жоффе / Rowan Joffe) [2014, Великобритания, Франция, Швеция, триллер, детектив, драма, BDRip-AVC] Dub + Original (Eng) + Subs (Eng) TorrentFilm 2.86 GB
Показать сообщения:    

Текущее время: Сегодня 18:37

Часовой пояс: GMT



Вы не можете начинать темы
Вы не можете отвечать на сообщения
Вы не можете редактировать свои сообщения
Вы не можете удалять свои сообщения
Вы не можете голосовать в опросах
Вы не можете прикреплять файлы к сообщениям
Вы не можете скачивать файлы