Прежде чем я уйду / Just Before I Go (2014) BDRip 1080p | P

 
Автор Сообщение

BOSS ®

Пол:

Стаж: 2 года 1 месяц

Сообщений: 3735

Откуда: ODESSA



Награды: 20 (Подробнее)

Top Releaser 4 (Количество: 1) Mega Releaser 2 (Количество: 1) Top Seeder 4 (Количество: 1)
Торрент-статистика

Создавать темы 29-Окт-2015 05:47

[Цитировать]

Информация о фильме
Название: Прежде чем я уйду
Оригинальное название: Just Before I Go
Год выхода: 2014
Жанр: драма, комедия
Режиссёр: Кортни Кокс
В ролях: Шонн Уильям Скотт, Оливия Тирлби, Гаррет Диллахант, Кейт Уолш, Кайл Галлнер, МакКензи Марш, Ивэн Росс, Роб Риггл, Конни Стивенс, Дэвид Аркетт
О фильме: Жизнь Теда потрепала его так, что стал задумываться о самоубийстве. До такого решения мужчина шел долгое время, ведь еще с самого детства он ощутил на себе, что такое неприятности. Когда он был подростком, то его постоянно терзали и оскорбляли хулиганы, а учитель математики и вовсе любил унижать Теда перед остальными учениками. Со временем детские обиды поутихли, но все же неприятный осадок остался.
По стечению обстоятельств, уже в зрелом возрасте Тед встречает своих обидчиков из детства. Как оказалось, жизнь у них сложилась тоже совсем непросто, ведь один хулиган, теперь уже вдовец и самостоятельно воспитывает сына с синдромом Дауна, и содержит его на свой очень скромный заработок. Преподаватель математики и вовсе сошел с ума, и теперь проходит лечение в больнице для душевнобольных. Хотя, жизнь, по сути, наказала обидчиков Теда, но его все равно не покидают мысли о суициде…


Выпущено: США / New Artists Alliance, Coquette Productions
Продолжительность: 01:30:43
Озвучивание: Профессиональное (многоголосое) официальное
Файл
Качество: BDRip 1080p
Видео: MPEG-4 AVC, 11 Мбит/с, 1920x800
Аудио: Русский (AC3, 2 ch, 192 Кбит/с), английский (AC3, 6 ch, 640 Кбит/с)
Субтитры: Английские
Семпл

Скриншоты

MediaInfo

General
Unique ID : 186826645342849011859783948284900440737 (0x8C8D80C9087519C98E5E59AB22307AA1)
Complete name : D:ВидеоПрежде чем я уйду.2014.BDRip.1080p.mkv
Format : Matroska
Format version : Version 4 / Version 2
File size : 7.50 GiB
Duration : 1h 30mn
Overall bit rate : 11.8 Mbps
Movie name : Just Before I Go. 2014
Encoded date : UTC 2015-10-28 19:26:57
Writing application : mkvmerge v7.9.0 ('Birds') 64bit
Writing library : libebml v1.3.1 + libmatroska v1.4.2
DURATION : 01:30:27.559000000
NUMBER_OF_FRAMES : 1710
NUMBER_OF_BYTES : 70878
_STATISTICS_WRITING_APP : mkvmerge v7.9.0 ('Birds') 64bit
_STATISTICS_WRITING_DATE_UTC : 2015-10-28 19:26:57
_STATISTICS_TAGS : BPS DURATION NUMBER_OF_FRAMES NUMBER_OF_BYTES
Video
ID : 1
Format : AVC
Format/Info : Advanced Video Codec
Format profile : High@L4.1
Format settings, CABAC : Yes
Format settings, ReFrames : 4 frames
Codec ID : V_MPEG4/ISO/AVC
Duration : 1h 30mn
Bit rate : 11.0 Mbps
Width : 1 920 pixels
Height : 800 pixels
Display aspect ratio : 2.40:1
Frame rate mode : Constant
Frame rate : 23.976 fps
Color space : YUV
Chroma subsampling : 4:2:0
Bit depth : 8 bits
Scan type : Progressive
Bits/(Pixel*Frame) : 0.299
Stream size : 6.82 GiB (91%)
Title : MTeam
Writing library : x264 core 142 r2431+42 c69a006 tMod [8-bit@4:2:0 X86_64]
Encoding settings : cabac=1 / ref=4 / deblock=1:-3:-3 / analyse=0x3:0x113 / me=umh / subme=10 / psy=1 / fade_compensate=0.00 / psy_rd=1.05:0.10 / mixed_ref=1 / me_range=48 / chroma_me=1 / trellis=2 / 8x8dct=1 / cqm=0 / deadzone=21,11 / fast_pskip=0 / chroma_qp_offset=-2 / threads=12 / lookahead_threads=1 / sliced_threads=0 / nr=0 / decimate=1 / interlaced=0 / bluray_compat=0 / constrained_intra=0 / fgo=0 / bframes=6 / b_pyramid=2 / b_adapt=2 / b_bias=0 / direct=3 / weightb=1 / open_gop=0 / weightp=2 / keyint=250 / keyint_min=23 / scenecut=40 / intra_refresh=0 / rc_lookahead=40 / rc=2pass / mbtree=0 / bitrate=11000 / ratetol=2.0 / qcomp=0.70 / qpmin=0:0:0 / qpmax=69:69:69 / qpstep=4 / cplxblur=20.0 / qblur=0.5 / vbv_maxrate=40000 / vbv_bufsize=30000 / nal_hrd=none / filler=0 / ip_ratio=1.40 / pb_ratio=1.30 / aq=3:1.00 / aq-sensitivity=10.00 / aq-factor=1.00:1.00:1.00 / aq2=0 / aq3=0
Language : English
Default : Yes
Forced : No
Audio #1
ID : 2
Format : AC-3
Format/Info : Audio Coding 3
Mode extension : CM (complete main)
Format settings, Endianness : Big
Codec ID : A_AC3
Duration : 1h 30mn
Bit rate mode : Constant
Bit rate : 192 Kbps
Channel(s) : 2 channels
Channel positions : Front: L R
Sampling rate : 48.0 KHz
Bit depth : 16 bits
Compression mode : Lossy
Stream size : 125 MiB (2%)
Language : Russian
Default : Yes
Forced : Yes
Audio #2
ID : 3
Format : AC-3
Format/Info : Audio Coding 3
Mode extension : CM (complete main)
Format settings, Endianness : Big
Codec ID : A_AC3
Duration : 1h 30mn
Bit rate mode : Constant
Bit rate : 640 Kbps
Channel(s) : 6 channels
Channel positions : Front: L C R, Side: L R, LFE
Sampling rate : 48.0 KHz
Bit depth : 16 bits
Compression mode : Lossy
Stream size : 415 MiB (5%)
Language : English
Default : No
Forced : No
Text #1
ID : 4
Format : UTF-8
Codec ID : S_TEXT/UTF8
Codec ID/Info : UTF-8 Plain Text
Title : Full
Language : English
Default : No
Forced : No
Text #2
ID : 5
Format : UTF-8
Codec ID : S_TEXT/UTF8
Codec ID/Info : UTF-8 Plain Text
Title : SDH
Language : English
Default : No
Forced : No
Text #3
ID : 6
Format : UTF-8
Codec ID : S_TEXT/UTF8
Codec ID/Info : UTF-8 Plain Text
Title : SDH-Colored
Language : English
Default : No
Forced : No
[Профиль] [ЛС]
Кто просматривает тему:

Форум Тема Автор Размер
Фантастика и фэнтези Джо Аберкромби - Первый Закон 2. Прежде чем их повесят (2016) MP3 Swager 800 MB
Отечественные мультфильмы Прежде мы были птицами (Гарри Бардин) [1982 г., Мультфильм, цыганская притча, DVDRip] TorrentFilm 293 MB
Трейлеры Прежде чем мы расстанемся / Before We Go (2015) WEBRip 1080p | Трейлер BOSS 75 MB
Фильмы 2014 года Прежде чем я уйду / Just Before I Go (Кортни Кокс) [2014, драма, комедия] HDRip | L1 BOSS 1.37 GB
Фильмы 2014 года Прежде чем я усну / Before I Go to Sleep (2014) BDRip от HQCLUB | UK Transfer | Лицензия sergej644 1.45 GB
Фильмы (HD DVD, Blu-ray и BDRemux) Прежде чем я усну / Before I Go to Sleep (2014) Blu-Ray 1080i | Rus Transfer | Лицензия Russian Mafia 16.32 GB
Фильмы 2014 года Прежде чем я усну / Before I Go to Sleep (Роуэн Жоффе / Rowan Joffe) [2014, Великобритания, Франция, Швеция, триллер, детектив, драма, BDRip-AVC] Dub + Original (Eng) + Subs (Eng) TorrentFilm 2.86 GB
Фильмы 2014 года Прежде чем я усну / Before I Go to Sleep (Роуэн Жоффе / Rowan Joffe) [2014, Великобритания, Франция, Швеция, триллер, детектив, драма, BDRip] Dub BD TorrentFilm 1.46 GB
Показать сообщения:    

Текущее время: Сегодня 06:17

Часовой пояс: GMT



Вы не можете начинать темы
Вы не можете отвечать на сообщения
Вы не можете редактировать свои сообщения
Вы не можете удалять свои сообщения
Вы не можете голосовать в опросах
Вы не можете прикреплять файлы к сообщениям
Вы не можете скачивать файлы