Прежде чем мы расстанемся / Before We Go (2015) WEBRip 1080p | Трейлер

 
Автор Сообщение

BOSS ®

Пол:

Стаж: 2 года 1 месяц

Сообщений: 3712

Откуда: ODESSA



Награды: 20 (Подробнее)

Top Keeper 2 (Количество: 1) Top Releaser 2 (Количество: 1) Mega Seeder 4 (Количество: 1)
Торрент-статистика

Создавать темы 03-Авг-2015 16:44

[Цитировать]

Год выпуска: 2015
Производство: США
Жанр: драма, мелодрама, комедия
Перевод: дублированный
Режиссер: Крис Эванс
Продюсеры: Ховард Болдуин, Карен Элиз Болдуин, Крис Эванс
Актеры: Крис Эванс, Элис Ив, Скотт Эванс, Эмма Фитцпатрик, Maria Breyman, Джон Каллам, Марк Кассен, Бет Катехис, Дэниэл Спинк, Кевин Керолан
Описание фильма:
Мужчина и женщина, ранее не знавшие друг друга, проводят ночь вместе. Противоречия, испытываемые героями в жизни, становятся основой для исследования друг друга и самих себя.
Дата мировой премьеры: 12 сентября 2014
Дата российской премьеры: 10 сентября 2015

Продолжительность: 00:02:28
Качество видео: WEBRip 1080p
Видеокодек: MPEG-4 AVC/H.264
Битрейт видео: 4104 Кбит/сек
Размер кадра: 1920x1036
Аудиокодек: AAC, 2 канала
Битрейт аудио: 128 Кбит/сек

MediaInfo:

Общее
Полное имя : Before-We-Go.mp4
Формат : MPEG-4
Профиль формата : Base Media
Идентификатор кодека : isom
Размер файла : 74,9 Мбайт
Продолжительность : 2 м. 28 с.
Режим общего битрейта : Переменный
Общий поток : 4235 Кбит/сек
Дата кодирования : UTC 2015-07-31 08:37:45
Дата пометки : UTC 2015-07-31 08:37:45
Программа кодирования : Lavf51.12.1
Видео
Идентификатор : 1
Формат : AVC
Формат/Информация : Advanced Video Codec
Профиль формата : Baseline@L4
Параметр CABAC формата : Нет
Параметр ReFrames формата : 1 кадр
Параметр GOP формата : M=1, N=12
Идентификатор кодека : avc1
Идентификатор кодека/Информация : Advanced Video Coding
Продолжительность : 2 м. 28 с.
Битрейт : 4104 Кбит/сек
Ширина : 1920 пикселей
Высота : 1036 пикселей
Соотношение сторон : 1,85:1
Режим частоты кадров : Постоянный
Частота кадров : 23,976 кадра/сек
Цветовое пространство : YUV
Субдискретизация насыщенности : 4:2:0
Битовая глубина : 8 бит
Тип развёртки : Прогрессивная
Бит/(Пиксели*Кадры) : 0.086
Размер потока : 72,5 Мбайт (97%)
Дата кодирования : UTC 2015-07-31 08:37:45
Дата пометки : UTC 2015-07-31 08:37:45
Аудио
Идентификатор : 2
Формат : AAC
Формат/Информация : Advanced Audio Codec
Профиль формата : LC
Идентификатор кодека : 40
Продолжительность : 2 м. 28 с.
Вид битрейта : Переменный
Битрейт : 128 Кбит/сек
Каналы : 2 канала
Расположение каналов : Front: L R
Частота : 48,0 КГц
Метод сжатия : С потерями
Размер потока : 2,26 Мбайт (3%)
Дата кодирования : UTC 2015-07-31 08:37:45
Дата пометки : UTC 2015-07-31 08:37:45
Скриншоты - -

Скриншоты

[Профиль] [ЛС]
Кто просматривает тему:

Форум Тема Автор Размер
Фантастика и фэнтези Джо Аберкромби - Первый Закон 2. Прежде чем их повесят (2016) MP3 Swager 800 MB
Отечественные мультфильмы Прежде мы были птицами (Гарри Бардин) [1982 г., Мультфильм, цыганская притча, DVDRip] TorrentFilm 293 MB
Фильмы (HD Rips | 720p, 1080p) Прежде чем я уйду / Just Before I Go (2014) BDRip 1080p | P BOSS 7.5 GB
Фильмы 2014 года Прежде чем я уйду / Just Before I Go (Кортни Кокс) [2014, драма, комедия] HDRip | L1 BOSS 1.37 GB
Фильмы 2014 года Прежде чем я усну / Before I Go to Sleep (2014) BDRip от HQCLUB | UK Transfer | Лицензия sergej644 1.45 GB
Фильмы (HD DVD, Blu-ray и BDRemux) Прежде чем я усну / Before I Go to Sleep (2014) Blu-Ray 1080i | Rus Transfer | Лицензия Russian Mafia 16.32 GB
Фильмы 2014 года Прежде чем я усну / Before I Go to Sleep (Роуэн Жоффе / Rowan Joffe) [2014, Великобритания, Франция, Швеция, триллер, детектив, драма, BDRip-AVC] Dub + Original (Eng) + Subs (Eng) TorrentFilm 2.86 GB
Фильмы 2014 года Прежде чем я усну / Before I Go to Sleep (Роуэн Жоффе / Rowan Joffe) [2014, Великобритания, Франция, Швеция, триллер, детектив, драма, BDRip] Dub BD TorrentFilm 1.46 GB
Показать сообщения:    

Текущее время: Сегодня 11:55

Часовой пояс: GMT



Вы не можете начинать темы
Вы не можете отвечать на сообщения
Вы не можете редактировать свои сообщения
Вы не можете удалять свои сообщения
Вы не можете голосовать в опросах
Вы не можете прикреплять файлы к сообщениям
Вы не можете скачивать файлы