Прежде мы были птицами (Гарри Бардин) [1982 г., Мультфильм, цыганская притча, DVDRip]

 
Автор Сообщение

TorrentFilm ®

Пол:

Стаж: 2 года

Сообщений: 7741



Награды: Нет

Торрент-статистика

Создавать темы 03-Янв-2016 00:05

[Цитировать]

Прежде мы были птицамиСтрана: СССР
Жанр: Мультфильм, цыганская притча
Продолжительность: 00:15:48
Год выпуска: 1982
Выпущено: «Союзмультфильм»
Режиссёр: Гарри Бардин
Русские субтитры: нетОписание:Музыкальный фильм по мотивам старинной цыганской притчи, в которой рассказано о том, как тяга к золоту, богатству лишила цыганских птиц их крыльев и превратила в кочующих людей.
Использован фрагмент "Цыганских напевов" Сарасате.
Участвует ансамбль "Джанг".

Режиссёр и команда

Режиссёр Гарри Бардин
сценаристы Юрий Энтин, Гарри Бардин
художник-постановщик Елена Фёдорова
художники: Елена Караваева, В. Харитонова, Зинаида Зарб, Николай Климов
аниматоры: Николай Фёдоров, Анатолий Абаренов, Виктор Лихачёв, Татьяна Фадеева, Антонина Алёшина, Александр Панов, Марина Восканьянц, Владимир Вышегородцев, Эльвира Маслова
операторы Сергей Хлебников, Михаил Друян
директор Нинель Липницкая
Музыка и тексты песен Николай Жемчужный
звукорежиссёр Борис Фильчиков
редактор Татьяна Папорова
роли озвучивали: Борис Ташкентский, Розалия Эрденко, Николай Эрденко, Екатерина Жемчужная.
монтажёр Маргарита Михеева
Качество: DVDRip
Формат: AVI
Видео: 704x528 (1.33:1), 25 fps, XviD build 64 ~2390 kbps avg, 0.26 bit/pixel
Аудио: 48 kHz, AC3 Dolby Digital, 2/0 (L,R) ch, ~192 kbps
Субтитры: отсутствуют

Подробные технические данные

ОбщееПолное имя : D:\Мульты\Prezhde_mi_byli_ptitzami.aviФормат : AVIФормат/Информация : Audio Video InterleaveРазмер файла : 293 МбайтПродолжительность : 15 м.Общий поток : 2593 Кбит/секПрограмма кодирования : VirtualDubMod 1.5.10.2 (build 2540/release)Библиотека кодирования : VirtualDubMod build 2540/release
ВидеоИдентификатор : 0Формат : MPEG-4 VisualПрофиль формата : Advanced Simple@L5Параметр BVOP формата : 2Параметр QPel формата : НетПараметр GMC формата : Без точки переходаПараметр матрицы формата : ВыборочнаяИдентификатор кодека : XVIDИдентификатор кодека/Подсказка : XviDПродолжительность : 15 м.Битрейт : 2391 Кбит/секШирина : 704 пикселяВысота : 528 пикселейСоотношение сторон : 4:3Частота кадров : 25,000 кадров/секЦветовое пространство : YUVСубдискретизация насыщенности : 4:2:0Битовая глубина : 8 битТип развёртки : ПрогрессивнаяМетод сжатия : С потерямиБит/(Пиксели*Кадры) : 0.257Размер потока : 270 Мбайт (92%)Библиотека кодирования : XviD 64
АудиоИдентификатор : 1Формат : AC-3Формат/Информация : Audio Coding 3Расширение режима : CM (complete main)Идентификатор кодека : 2000Продолжительность : 15 м.Вид битрейта : ПостоянныйБитрейт : 192 Кбит/секКаналы : 2 каналаРасположение каналов : Front: L RЧастота : 48,0 КГцБитовая глубина : 16 битМетод сжатия : С потерямиРазмер потока : 21,7 Мбайт (7%)Выравнивание : Разделение по промежуткамПродолжительность промежутка : 40 мс. (1,00 видеокадр)Время предзагрузки промежутка : 500 мс.
Subtitles: Not Present

Скриншоты

-Сравнение с другими раздачами:
1. "Прежде мы были птицами" (dvdss, 704x528, ~ 2098 kbps) http://screenshotcomparison.com/comparison/46676
2. "Прежде мы были птицами" (Pablo, в сборнике, 640 x 480, DivX, ~1603 kbps) http://screenshotcomparison.com/comparison/46675
-
Другие мультфильмы Гарри БардинаАдажио (2000 г.)
Банкет (1986 г.)
Брак (1987 г.)
Брэк (1985 г.)
Брэк (1985 г.) ─ альтернативный
Выкрутасы (1987 г.)
Достать до неба (1975 г.)
Конфликт (1983 г.)
Пиф-паф, ой-ой-ой (1980 г.)
Серый волк энд Красная Шапочка (1990 г.)
Тяп, Ляп — маляры! (1984 г.)
Чуча ─ 1, 2, 3 (1997, 2001, 2004 г.г.)- Все раздачи
[Профиль] [ЛС]
Кто просматривает тему:

Форум Тема Автор Размер
Фантастика и фэнтези Джо Аберкромби - Первый Закон 2. Прежде чем их повесят (2016) MP3 Swager 800 MB
Трейлеры Прежде чем мы расстанемся / Before We Go (2015) WEBRip 1080p | Трейлер BOSS 75 MB
Фильмы (HD Rips | 720p, 1080p) Прежде чем я уйду / Just Before I Go (2014) BDRip 1080p | P BOSS 7.5 GB
Фильмы 2014 года Прежде чем я уйду / Just Before I Go (Кортни Кокс) [2014, драма, комедия] HDRip | L1 BOSS 1.37 GB
Фильмы 2014 года Прежде чем я усну / Before I Go to Sleep (2014) BDRip от HQCLUB | UK Transfer | Лицензия sergej644 1.45 GB
Фильмы (HD DVD, Blu-ray и BDRemux) Прежде чем я усну / Before I Go to Sleep (2014) Blu-Ray 1080i | Rus Transfer | Лицензия Russian Mafia 16.32 GB
Фильмы 2014 года Прежде чем я усну / Before I Go to Sleep (Роуэн Жоффе / Rowan Joffe) [2014, Великобритания, Франция, Швеция, триллер, детектив, драма, BDRip-AVC] Dub + Original (Eng) + Subs (Eng) TorrentFilm 2.86 GB
Фильмы 2014 года Прежде чем я усну / Before I Go to Sleep (Роуэн Жоффе / Rowan Joffe) [2014, Великобритания, Франция, Швеция, триллер, детектив, драма, BDRip] Dub BD TorrentFilm 1.46 GB
Показать сообщения:    

Текущее время: Сегодня 09:58

Часовой пояс: GMT



Вы не можете начинать темы
Вы не можете отвечать на сообщения
Вы не можете редактировать свои сообщения
Вы не можете удалять свои сообщения
Вы не можете голосовать в опросах
Вы не можете прикреплять файлы к сообщениям
Вы не можете скачивать файлы