Предчувствие / Premonition (Меннан Япо / Mennan Yapo) [2007, США, фантастика, фэнтези, триллер, драма, детектив, BDRip] AVO (Иванов)

 
Автор Сообщение

TorrentFilm ®

Пол:

Стаж: 2 года

Сообщений: 7741



Награды: Нет

Торрент-статистика

Создавать темы 12-Апр-2015 00:03

[Цитировать]

Предчувствие / Premonition Страна: США
Жанр: фантастика, фэнтези, триллер, драма, детектив
Год выпуска: 2007
Продолжительность: 01:36:27
Перевод: Авторский (одноголосый закадровый) Михаил Иванов
Cубтитры: нет
Режиссер: Меннан Япо / Mennan Yapo
В ролях: Сандра Буллок, Джулиан МакМэхон, Ниа Лонг, Амбер Валлетта, Маркус Лайл Браун, Кортни Тэйлор Бернесс, Джейсон Дуглас
Описание: У каждого в жизни хоть раз было предчувствие беды. Когда просто знаешь, что скоро произойдет что-то плохое. Домохозяйку Линду сейчас как раз охватило такое предчувствие. Некоторое время спустя шериф города сообщает ей, что ее муж погиб в автокатастрофе. Не зная себя от горя и отчаяния, Линда не находит себе места — она не верит, что такое могло произойти. Проснувшись утром на следующий день, она видит своего мужа целым и невредимым…
Вскоре Линда поймет, что это было не простое предчувствие, и теперь она должна предотвратить трагедию.

Качество видео: BDRip спасибо _Flash
Формат видео: AVI
Видео кодек: XviD
Аудио кодек: AC3
Видео: 720x304 (2.37:1), 23.976 fps, XviD build 73 ~1714 kbps avg, 0.33 bit/pixel
Аудио: 48 kHz, AC3 Dolby Digital, 3/2 (L,C,R,l,r) + LFE ch, ~448 kbps

Доп.инфо

За дорогу Иванова большое спасибо budulai-8, также большое спасибо Диммон и Nadoelo благодаря которым состоялся данный перевод

MediaInfo

Полное имя : Предчувствие 2007.avi
Формат : AVI
Формат/Информация : Audio Video Interleave
Размер файла : 1,46 Гбайт
Продолжительность : 1 ч. 36 м.
Общий поток : 2172 Кбит/сек
Программа кодирования : VirtualDubMod 1.5.10.2 (build 2540/release)
Библиотека кодирования : VirtualDubMod build 2540/release
Видео
Идентификатор : 0
Формат : MPEG-4 Visual
Профиль формата : Advanced Simple@L5
Параметр BVOP формата : 1
Параметр QPel формата : Нет
Параметр GMC формата : Без точки перехода
Параметр матрицы формата : Выборочная
Идентификатор кодека : XVID
Идентификатор кодека/Подсказка : XviD
Продолжительность : 1 ч. 36 м.
Битрейт : 1715 Кбит/сек
Ширина : 720 пикселей
Высота : 304 пикселя
Соотношение сторон : 2,35:1
Частота кадров : 23,976 кадра/сек
Цветовое пространство : YUV
Субдискретизация насыщенности : 4:2:0
Битовая глубина : 8 бит
Тип развёртки : Прогрессивная
Метод сжатия : С потерями
Бит/(Пиксели*Кадры) : 0.327
Размер потока : 1,16 Гбайт (79%)
Библиотека кодирования : XviD 73
Аудио
Идентификатор : 1
Формат : AC-3
Формат/Информация : Audio Coding 3
Расширение режима : CM (complete main)
Параметр Endianness формата : Big
Идентификатор кодека : 2000
Продолжительность : 1 ч. 36 м.
Вид битрейта : Постоянный
Битрейт : 448 Кбит/сек
Каналы : 6 каналов
Расположение каналов : Front: L C R, Side: L R, LFE
Частота : 48,0 КГц
Битовая глубина : 16 бит
Метод сжатия : С потерями
Размер потока : 309 Мбайт (21%)
Выравнивание : Разделение по промежуткам
Продолжительность промежутка : 42 мс. (1,00 видеокадр)
Время предзагрузки промежутка : 500 мс.

Скриншоты

[Профиль] [ЛС]

Создавать темы 06-Авг-2015 22:37 (спустя 3 месяца 24 дня)

Топик был перенесен из форума Фильмы до 2014 года в форум Фильмы до 2012 года
sergej644
 
Кто просматривает тему:

Показать сообщения:    

Текущее время: Сегодня 08:19

Часовой пояс: GMT



Вы не можете начинать темы
Вы не можете отвечать на сообщения
Вы не можете редактировать свои сообщения
Вы не можете удалять свои сообщения
Вы не можете голосовать в опросах
Вы не можете прикреплять файлы к сообщениям
Вы не можете скачивать файлы