Предместье / The 'Burbs (Джо Данте) [1989 г., комедия, детектив, BDRip 720p] [DVO, AVO]

 
Автор Сообщение

Bathory ®

Пол:

Стаж: 9 месяцев 2 дня

Сообщений: 169



Награды: 3 (Подробнее)

Girls (Количество: 1) За внесенный вклад в развитие сайта (Количество: 1) Друг (Количество: 1)
Торрент-статистика

Создавать темы 08-Мар-2016 12:31

[Цитировать]

Предместье / The 'Burbs- Информация о фильме
Название: Предместье
Оригинальное название: The 'Burbs
Год выхода: 1989
Жанр: комедия, детектив
Режиссер: Джо Данте
В ролях: Том Хэнкс, Брюс Дерн, Кэрри Фишер, Рик Дукомман, Кори Фельдман, Уэнди Шаал, Генри Гибсон, Брава Теодор, Кортни Гейнс, Гэйл Гордон
О фильме:
Ленивой умиротворенной жизни в предместье, где решил отдохнуть наш герой Рэй Питерсон, пришел конец! Рэй наивно хотел расслабиться недельку, флегматично побродить в пижаме и почитать газеты. Но не тут-то было: отдых превращается в непрекращающийся кошмар!
В соседнем доме поселились странные люди по фамилии Клопек, которые ни с кем не общаются и никогда не спят! По ночам из их погреба слышатся странные звуки! В предместье, где каждый знает всю подноготную другого, — эти явления из ряда вон выходящие! Ну, а после того, как в один прекрасный день исчезает местный старикан Уолтер, окрестные жители решают, что это дело рук Клопеков!
Вооружившись ружьями, мощными биноклями и лопатами население предместья отправляется к зловещему дому для «прояснения» ситуации. И их ждет воистину шокирующее открытие!

Страна: США
Студия: Imagine Entertainment
Продолжительность: 01:41:26
Перевод: 1. Профессиональный (двухголосый закадровый)
2. Авторский (одноголосый закадровый) А.Михалев
Файл
Кодек: AVC
Качество: BDRip 720p
Видео: 1280x688, 4654 kbps, 23,976 fps, 0,220 Bits/(Pixel*Frame)
Звук:
1. AC3, 48 kHz, 2 ch, 192 kbps - русский, профессиональный двухголосый
2. AC3, 48 kHz, 2 ch, 384 kbps - русский, авторский одноголосый
3. AC3, 48 kHz, 2 ch, 192 kbps - украинский, профессиональный двухголосый
4. AC3, 48 kHz, 2 ch, 192 kbps - английский (оригинал)
Субтитры: английские

MI

General
Unique ID : 210882744340961315360062950148077908511 (0x9EA68A098A73E949BA4A913B533DF21F)
Complete name : E:\The.Burbs.1989.BDRip.720p_by_Bathory.mkv
Format : Matroska
Format version : Version 4 / Version 2
File size : 3.98 GiB
Duration : 1h 41mn
Overall bit rate : 5 620 Kbps
Encoded date : UTC 2016-02-05 08:33:41
Writing application : mkvmerge v8.8.0 ('Wind at my back') 64bit
Writing library : libebml v1.3.3 + libmatroska v1.4.4
DURATION : 01:35:35.522000000
NUMBER_OF_FRAMES : 2216
NUMBER_OF_BYTES : 6467947
_STATISTICS_WRITING_APP : mkvmerge v8.8.0 ('Wind at my back') 64bit
_STATISTICS_WRITING_DATE_UTC : 2016-02-05 08:33:41
_STATISTICS_TAGS : BPS DURATION NUMBER_OF_FRAMES NUMBER_OF_BYTES
Video
ID : 1
Format : AVC
Format/Info : Advanced Video Codec
Format profile : High@L4.1
Format settings, CABAC : Yes
Format settings, ReFrames : 9 frames
Codec ID : V_MPEG4/ISO/AVC
Duration : 1h 41mn
Bit rate : 4 654 Kbps
Width : 1 280 pixels
Height : 688 pixels
Display aspect ratio : 1.85:1
Frame rate mode : Constant
Frame rate : 23.976 fps
Color space : YUV
Chroma subsampling : 4:2:0
Bit depth : 8 bits
Scan type : Progressive
Bits/(Pixel*Frame) : 0.220
Stream size : 3.22 GiB (81%)
Writing library : x264 core 148 r2638 7599210
Encoding settings : cabac=1 / ref=9 / deblock=1:-3:-3 / analyse=0x3:0x133 / me=umh / subme=11 / psy=1 / psy_rd=1.00:0.10 / mixed_ref=0 / me_range=32 / chroma_me=1 / trellis=2 / 8x8dct=1 / cqm=0 / deadzone=21,11 / fast_pskip=0 / chroma_qp_offset=-3 / threads=2 / lookahead_threads=1 / sliced_threads=0 / nr=0 / decimate=1 / interlaced=0 / bluray_compat=0 / constrained_intra=0 / bframes=8 / b_pyramid=2 / b_adapt=2 / b_bias=0 / direct=3 / weightb=1 / open_gop=0 / weightp=2 / keyint=240 / keyint_min=23 / scenecut=40 / intra_refresh=0 / rc_lookahead=60 / rc=2pass / mbtree=1 / bitrate=4654 / ratetol=2.0 / qcomp=0.70 / qpmin=0 / qpmax=69 / qpstep=4 / cplxblur=16.0 / qblur=0.5 / ip_ratio=1.40 / aq=2:1.20
Default : Yes
Forced : No
Audio #1
ID : 2
Format : AC-3
Format/Info : Audio Coding 3
Mode extension : CM (complete main)
Format settings, Endianness : Big
Codec ID : A_AC3
Duration : 1h 41mn
Bit rate mode : Constant
Bit rate : 192 Kbps
Channel(s) : 2 channels
Channel positions : Front: L R
Sampling rate : 48.0 KHz
Bit depth : 16 bits
Compression mode : Lossy
Stream size : 139 MiB (3%)
Language : Russian
Default : Yes
Forced : No
Audio #2
ID : 3
Format : AC-3
Format/Info : Audio Coding 3
Format profile : Dolby Digital
Mode extension : CM (complete main)
Format settings, Endianness : Big
Codec ID : A_AC3
Duration : 1h 41mn
Bit rate mode : Constant
Bit rate : 384 Kbps
Channel(s) : 2 channels
Channel positions : Front: L R
Sampling rate : 48.0 KHz
Bit depth : 16 bits
Compression mode : Lossy
Stream size : 279 MiB (7%)
Language : Russian
Default : No
Forced : No
Audio #3
ID : 4
Format : AC-3
Format/Info : Audio Coding 3
Mode extension : CM (complete main)
Format settings, Endianness : Big
Codec ID : A_AC3
Duration : 1h 41mn
Bit rate mode : Constant
Bit rate : 192 Kbps
Channel(s) : 2 channels
Channel positions : Front: L R
Sampling rate : 48.0 KHz
Bit depth : 16 bits
Compression mode : Lossy
Stream size : 139 MiB (3%)
Language : Ukrainian
Default : No
Forced : No
Audio #4
ID : 5
Format : AC-3
Format/Info : Audio Coding 3
Format profile : Dolby Digital
Mode extension : CM (complete main)
Format settings, Endianness : Big
Codec ID : A_AC3
Duration : 1h 41mn
Bit rate mode : Constant
Bit rate : 192 Kbps
Channel(s) : 2 channels
Channel positions : Front: L R
Sampling rate : 48.0 KHz
Bit depth : 16 bits
Compression mode : Lossy
Stream size : 139 MiB (3%)
Language : English
Default : No
Forced : No
Text #1
ID : 6
Format : PGS
Muxing mode : zlib
Codec ID : S_HDMV/PGS
Codec ID/Info : The same subtitle format used on BDs/HD-DVDs
Language : Russian
Default : Yes
Forced : No
Text #2
ID : 7
Format : PGS
Muxing mode : zlib
Codec ID : S_HDMV/PGS
Codec ID/Info : The same subtitle format used on BDs/HD-DVDs
Language : English
Default : No
Forced : No

Скриншоты

Автор рипа: Bathory
[Профиль] [ЛС]
Показать сообщения:    

Текущее время: Сегодня 19:33

Часовой пояс: GMT



Вы не можете начинать темы
Вы не можете отвечать на сообщения
Вы не можете редактировать свои сообщения
Вы не можете удалять свои сообщения
Вы не можете голосовать в опросах
Вы не можете прикреплять файлы к сообщениям
Вы не можете скачивать файлы