Пределы света / Limits of Lights (Мартин Эслбери) [2011, Документальный, HDTVRip 720p]

 
Автор Сообщение

TorrentFilm ®

Пол:

Стаж: 2 года

Сообщений: 7741



Награды: Нет

Торрент-статистика

Создавать темы 27-Фев-2015 00:01

[Цитировать]

Пределы света / Limits of Lights
Год выпуска: 2011
Страна: Австрия
Студия: An AV Documenta for ORF Intrprise, ORF Universum, bm:UK
Жанр: Документальный
Продолжительность: 00:50:00
Перевод: Профессиональный (одноголосый)
Режиссер: Мартин Эслбери
Описание: Мир наполнен светом и цветом. Наш глаз воспринимает видимый цветовой спектр. Но цвета существуют и за пределами видимого спектра, а то, что мы видим, составляет лишь его малую часть. Используя современные технологии, мы пересечём пределы видимого спектра и попадём в зоны невидимого.
Сэмпл: Скачать
Тип релиза: HDTVRip 720p
Контейнер: MKV
Видео: MPEG-4 AVC, 3 600 Кбит/с, 1280x720
Аудио: Русский АС3, 6 ch, 448 Кбит/с (1 ТВЧ),
Аудио 2: Русский AC3, 2 ch, 192 kb/s (Культура)

MediaInfo

GeneralUnique ID : 232290700138063296406216556906510992156 (0xAEC18FBFC3EEDE28A4296EBB7ED6C31C)Complete name : M:\Торренты\Документальные\Пределы света_720p.mkvFormat : MatroskaFormat version : Version 4 / Version 2File size : 1.48 GiBDuration : 50mn 0sOverall bit rate : 4 233 KbpsEncoded date : UTC 2014-11-16 09:55:32Writing application : mkvmerge v6.6.0 ('The Edge Of The In Between') built on Dec 1 2013 17:55:00Writing library : libebml v1.3.0 + libmatroska v1.4.1
VideoID : 1Format : AVCFormat/Info : Advanced Video CodecFormat profile : High@L4.1Format settings, CABAC : YesFormat settings, ReFrames : 9 framesCodec ID : V_MPEG4/ISO/AVCDuration : 50mn 1sBit rate : 3 600 KbpsWidth : 1 280 pixelsHeight : 720 pixelsDisplay aspect ratio : 16:9Frame rate mode : ConstantFrame rate : 25.000 fpsColor space : YUVChroma subsampling : 4:2:0Bit depth : 8 bitsScan type : ProgressiveBits/(Pixel*Frame) : 0.156Stream size : 1.23 GiB (83%)Writing library : x264 core 142 r2431 ac76440Encoding settings : cabac=1 / ref=9 / deblock=1:-1:-1 / analyse=0x3:0x133 / me=umh / subme=9 / psy=1 / psy_rd=1.00:0.10 / mixed_ref=1 / me_range=32 / chroma_me=1 / trellis=2 / 8x8dct=1 / cqm=0 / deadzone=21,11 / fast_pskip=1 / chroma_qp_offset=-3 / threads=6 / lookahead_threads=1 / sliced_threads=0 / nr=0 / decimate=0 / interlaced=0 / bluray_compat=0 / constrained_intra=0 / bframes=6 / b_pyramid=2 / b_adapt=2 / b_bias=0 / direct=3 / weightb=1 / open_gop=0 / weightp=2 / keyint=250 / keyint_min=23 / scenecut=40 / intra_refresh=0 / rc=2pass / mbtree=0 / bitrate=3600 / ratetol=1.0 / qcomp=0.60 / qpmin=0 / qpmax=69 / qpstep=4 / cplxblur=20.0 / qblur=0.5 / ip_ratio=1.40 / pb_ratio=1.30 / aq=1:1.00Language : EnglishDefault : YesForced : No
Audio #1ID : 2Format : AC-3Format/Info : Audio Coding 3Mode extension : CM (complete main)Format settings, Endianness : BigCodec ID : A_AC3Duration : 50mn 0sBit rate mode : ConstantBit rate : 448 KbpsChannel(s) : 6 channelsChannel positions : Front: L C R, Side: L R, LFESampling rate : 48.0 KHzBit depth : 16 bitsCompression mode : LossyDelay relative to video : 41msStream size : 160 MiB (11%)Title : 1tvchLanguage : RussianDefault : YesForced : No
Audio #2ID : 3Format : AC-3Format/Info : Audio Coding 3Mode extension : CM (complete main)Format settings, Endianness : BigCodec ID : A_AC3Duration : 50mn 0sBit rate mode : ConstantBit rate : 192 KbpsChannel(s) : 2 channelsChannel positions : Front: L RSampling rate : 48.0 KHzBit depth : 16 bitsCompression mode : LossyStream size : 68.7 MiB (5%)Title : KulturaLanguage : RussianDefault : NoForced : No

Скриншоты


[Профиль] [ЛС]
Кто просматривает тему:

Форум Тема Автор Размер
Зарубежные мультфильмы Halo: Падение Предела / Halo: The Fall of Reach (2015) BDRip-AVC | P достали все 1.38 GB
Зарубежные мультфильмы Halo: Падение Предела / Halo: The Fall of Reach (2015) HDRip | P достали все 1.37 GB
Action FPS (1st Person) Painkiller Black Edition / Painkiller: Крещенный кровью + Painkiller: Битва за Пределами Ада [L|GOG] [ENG] (2004) (v.1.64) TorrentFilm 3.67 GB
Viasat Nature Viasat Nature: Европа и Мир за её пределами / Planet Europe & Beyond [серии 1-7 из 7] (Курт Мюндл) [2015 г., Документальный, познавательный, природа, флора, фауна, путешествие, туризм, HDTVRip 720p] skorpionN 12.68 GB
Viasat Nature Viasat Nature: Европа и Мир за её пределами / Planet Europe & Beyond [серии 1-7 из 7] (Курт Мюндл) [2015 г., Документальный, познавательный, природа, флора, фауна, путешествие, туризм, SATRip] skorpionN 4.95 GB
Фантастика, фэнтези Александра Ситникова | Хранители Предела (2015) [FB2] достали все 1 MB
Фильмы до 2012 года Беспредел (1989) DVDRip sergej644 2.09 GB
Фильмы (HD DVD, Blu-ray и BDRemux) Вертикальный предел / Vertical Limit (2000) BDRemux 1080p | D, P, A Russian Mafia 33.48 GB
Показать сообщения:    

Текущее время: Сегодня 04:30

Часовой пояс: GMT



Вы не можете начинать темы
Вы не можете отвечать на сообщения
Вы не можете редактировать свои сообщения
Вы не можете удалять свои сообщения
Вы не можете голосовать в опросах
Вы не можете прикреплять файлы к сообщениям
Вы не можете скачивать файлы