Превосходство / Transcendence (2014) BDRip [1080p] 3D [Вертикальная анаморфная стереопара]

 
Автор Сообщение

sergej644 ®

Пол:

Стаж: 4 года 11 месяцев

Сообщений: 6040

Откуда: Soviet Union



Награды: Нет

Торрент-статистика

Создавать темы 18-Ноя-2014 23:29

[Цитировать]

-Превосходство / Transcendence (2014) BDRip«What if a new intelligence was born?»- Год выпуска: 2014
Производство: Великобритания, Китай, США - Alcon Entertainment, DMG
Жанр: Фантастика, Драма, Триллер
Режиссер: Уолли Пфистер
Продюсер: Кейт Коэн, Бродерик Джонсон, Эндрю А. Косов
Актеры: Джонни Депп, Ребекка Холл, Пол Беттани, Киллиан Мёрфи, Морган Фримен, Кейт Мара, Клифтон Коллинз мл., Коул Хаузер, Джош Стюарт, Кори Хардрикт
Описание фильма:
Выдающийся исследователь в области изучения искусственного интеллекта доктор Уилл Кастер работает над созданием компьютера, который сможет собрать в себе все знания и опыт, накопленные человечеством. Достаточно спорные эксперименты, проводимые Уиллом, прославили его и в то же время сделали основной целью радикальной анти-технологической группировки. Экстремисты делают всё возможное, чтобы остановить учёного.
Однако в своих попытках уничтожить Уилла они добиваются обратного и становятся невольными участниками становления его абсолютного превосходства. Для его жены Эвелин и лучшего друга Макса Вотерса, тоже учёных-исследователей, встаёт вопрос, должны ли они продолжать этот эксперимент. Их худшие опасения претворяются в жизнь, когда жажда знаний Уилла переходит в неконтролируемую жажду власти…
Перевод: Дублированный (Line)
Субтитры: Отсутствуют

Дата мировой премьеры: 10 апреля 2014
Дата российской премьеры: 10 июля 2014, «West»
Рейтинг MPAA: PG-13
Возраст: 12+-Продолжительность: 01:53:32
Качество видео: BDRip (BD 3D Fra)
Видеокодек: MPEG-4 AVC/H.264
Битрейт видео: ~8430 Кбит/сек
Размер кадра: 1920x1080
Аудио 1: AC3 2.0 384 kbps [Русский - Официальный дубляж]
Аудио 2: AC3 5.1, 384 kbps [Русский - Студия Пиратского Дубляжа]
Аудио 3: AC3 5.1, 640 kbps [Английский]-

Media info:

Общее
Уникальный идентификатор : 220742964174677370236005703672450900255 (0xA6118C68A3DCAB94980F69B542C9E11F)
Полное имя : F:\my films\Transcendence_3D.mkv
Формат : Matroska
Версия формата : Version 2
Размер файла : 7,96 Гбайт
Продолжительность : 1 ч. 53 м.
Общий поток : 10,0 Мбит/сек
Дата кодирования : UTC 2014-11-10 15:43:32
Программа кодирования : mkvmerge v7.0.0 ('Where We Going') 32bit built on Jun 9 2014 15:08:34
Библиотека кодирования : libebml v1.3.0 + libmatroska v1.4.1
DURATION : 01:53:25.984000000
NUMBER_OF_FRAMES : 212687
NUMBER_OF_BYTES : 544478720
_STATISTICS_WRITING_APP : mkvmerge v7.0.0 ('Where We Going') 32bit built on Jun 9 2014 15:08:34
_STATISTICS_WRITING_DATE_UTC : 2014-11-10 15:43:32
_STATISTICS_TAGS : BPS DURATION NUMBER_OF_FRAMES NUMBER_OF_BYTES
Видео
Идентификатор : 1
Формат : AVC
Формат/Информация : Advanced Video Codec
Профиль формата : [url=mailto:High@L4.1]High@L4.1[/url]
Параметр CABAC формата : Да
Параметр ReFrames формата : 4 кадра
Идентификатор кодека : V_MPEG4/ISO/AVC
Продолжительность : 1 ч. 53 м.
Битрейт : 8430 Кбит/сек
Ширина : 1920 пикселей
Высота : 1080 пикселей
Соотношение сторон : 16:9
Режим частоты кадров : Постоянный
Частота кадров : 23,976 кадра/сек
Цветовое пространство : YUV
Субдискретизация насыщенности : 4:2:0
Битовая глубина : 8 бит
Тип развёртки : Прогрессивная
Бит/(Пиксели*Кадры) : 0.170
Размер потока : 6,69 Гбайт (84%)
Заголовок : rip by I/N
Библиотека кодирования : x264 core 128 r2216M 198a7ea
Настройки программы : cabac=1 / ref=4 / deblock=1:-3:-3 / analyse=0x3:0x133 / me=umh / subme=10 / psy=1 / psy_rd=1.00:0.15 / mixed_ref=1 / me_range=32 / chroma_me=1 / trellis=2 / 8x8dct=1 / cqm=0 / deadzone=0,0 / fast_pskip=0 / chroma_qp_offset=-3 / threads=8 / lookahead_threads=1 / sliced_threads=0 / nr=0 / decimate=1 / interlaced=0 / bluray_compat=0 / constrained_intra=0 / bframes=8 / b_pyramid=2 / b_adapt=2 / b_bias=0 / direct=3 / weightb=1 / open_gop=0 / weightp=2 / keyint=230 / keyint_min=23 / scenecut=40 / intra_refresh=0 / rc_lookahead=60 / rc=crf / mbtree=1 / crf=17.0 / qcomp=0.60 / qpmin=0 / qpmax=69 / qpstep=4 / vbv_maxrate=40000 / vbv_bufsize=30000 / crf_max=30.0 / nal_hrd=none / ip_ratio=1.40 / aq=1:0.90
Default : Да
Forced : Нет
Аудио #1
Идентификатор : 2
Формат : AC-3
Формат/Информация : Audio Coding 3
Расширение режима : CM (complete main)
Параметр Endianness формата : Big
Идентификатор кодека : A_AC3
Продолжительность : 1 ч. 53 м.
Вид битрейта : Постоянный
Битрейт : 384 Кбит/сек
Каналы : 2 канала
Расположение каналов : Front: L R
Частота : 48,0 КГц
Битовая глубина : 16 бит
Метод сжатия : С потерями
Размер потока : 312 Мбайт (4%)
Заголовок : Дубляж (Line)
Язык : Russian
Default : Да
Forced : Нет
Аудио #2
Идентификатор : 3
Формат : AC-3
Формат/Информация : Audio Coding 3
Расширение режима : CM (complete main)
Параметр Endianness формата : Big
Идентификатор кодека : A_AC3
Продолжительность : 1 ч. 53 м.
Вид битрейта : Постоянный
Битрейт : 384 Кбит/сек
Каналы : 6 каналов
Расположение каналов : Front: L C R, Side: L R, LFE
Частота : 48,0 КГц
Битовая глубина : 16 бит
Метод сжатия : С потерями
Размер потока : 312 Мбайт (4%)
Заголовок : Дубляж ( Студия Пиратского Дубляжа)
Язык : Russian
Default : Нет
Forced : Нет
Аудио #3
Идентификатор : 4
Формат : AC-3
Формат/Информация : Audio Coding 3
Расширение режима : CM (complete main)
Параметр Endianness формата : Big
Идентификатор кодека : A_AC3
Продолжительность : 1 ч. 53 м.
Вид битрейта : Постоянный
Битрейт : 640 Кбит/сек
Каналы : 6 каналов
Расположение каналов : Front: L C R, Side: L R, LFE
Частота : 48,0 КГц
Битовая глубина : 16 бит
Метод сжатия : С потерями
Размер потока : 520 Мбайт (6%)
Заголовок : Original
Язык : English
Default : Нет
Forced : Нет
Меню
00:00:00.000 : en:00:00:00.000
00:16:19.937 : en:00:16:19.937
00:26:46.772 : en:00:26:46.772
00:35:55.070 : en:00:35:55.070
00:43:04.457 : en:00:43:04.457
00:52:59.510 : en:00:52:59.510
00:59:45.749 : en:00:59:45.749
01:07:40.390 : en:01:07:40.390
01:18:00.593 : en:01:18:00.593
01:28:05.822 : en:01:28:05.822
01:35:26.721 : en:01:35:26.721
01:45:09.553 : en:01:45:09.553
01:53:32.764 : en:01:53:32.764

Особенности релиза:

Справа и слева у видеоряда обрезано по 248р, что дает возможность просмотра на полный экран (без черных полос) на телевизорах с соотношением сторон 16:9 без изменения пропорций. На мой взгляд плюсы данных рипов- это более глубокое восприятие 3D-эффектов (конечно там где они есть) К минусам отнесу- вынужденное обрезание кадра по бокам. Так-что господа- выбор за вами!
Всем приятного просмотра!
Проверено на встроенном плейере ТВ Samsung-D6500Скриншоты:

Время раздачи: 24/7 - круглосуточно до 10 скачавших
[Профиль] [ЛС]
Показать сообщения:    

Текущее время: Сегодня 22:41

Часовой пояс: GMT



Вы не можете начинать темы
Вы не можете отвечать на сообщения
Вы не можете редактировать свои сообщения
Вы не можете удалять свои сообщения
Вы не можете голосовать в опросах
Вы не можете прикреплять файлы к сообщениям
Вы не можете скачивать файлы