Превосходство / Transcendence (2014) BDRemux [1080p]

 
Автор Сообщение

sergej644 ®

Пол:

Стаж: 4 года 11 месяцев

Сообщений: 6043

Откуда: Soviet Union



Награды: Нет

Торрент-статистика

Создавать темы 02-Авг-2014 20:16

[Цитировать]

-Превосходство / Transcendence (2014) BDRemux
«What if a new intelligence was born?»
- Год выпуска: 2014
Производство: Великобритания, Китай, США / Alcon Entertainment
Жанр: Фантастика, триллер, драма, детектив
Описание фильма:
Выдающийся исследователь в области изучения искусственного интеллекта Доктор Уилл Кастер работает над созданием компьютера, который сможет собрать в себе все знания и опыт, накопленные человечеством. Достаточно спорные эксперименты, проводимые Уиллом, прославили его, и в то же время сделали основной целью радикальной анти-технологической группировки. Экстремисты делают все возможное, чтобы остановить его. Однако в своих попытках уничтожить Уилла они добиваются обратного и становятся невольными участниками становления его абсолютного превосходства. Для его жены Эвелин и лучшего друга Макса Вотерса, тоже ученых-исследователей, встает вопрос должны ли они продолжать этот эксперимент. Их худшие опасения претворяются в жизнь, когда жажда знаний Уилла переходит в неконтролируемую жажду власти…
Режиссер: Уолли Пфистер / Wally Pfister
Продюсер: Кейт Коэн, Бродерик Джонсон, Эндрю А. Косов
Актеры: Джонни Депп, Ребекка Холл, Пол Беттани, Киллиан Мёрфи, Кейт Мара, Коул Хаузер, Морган Фриман, Клифтон Коллинз мл., Кори Хардрикт, Фальк Хеншел
Язык: Русский, английский
Перевод: Дублированный (Студия Пиратского Дубляжа), Одноголосый закадровый (любительский)
Вид субтитров: Вшитые отключаемые
Язык субтитров: Русский, английский (full, SDH)

Дата мировой премьеры: 10 апреля 2014
Дата российской премьеры: 10 июля 2014, «West»
Рейтинг MPAA: PG-13
Возраст: 12+
Продолжительность: 01:59:16
Качество видео: BDRemux
Видео: MPEG-4 AVC/H.264, 1920x1080, ~17871 kbps, 0.363 bit/pixel, 23.976 fps
Аудио 1: AC3 5.1, 384 kbps, 48 kHz, 16-bit [Русский - дублированный «Студия Пиратского Дубляжа»]
Аудио 2: DTS-HD MA 5.1, 2092 kbps, 48 kHz, 16-bit [Русский - одноголосый закадровый «Д. Есарев»]
Аудио 3: DTS-HD MA 5.1, 2151 kbps, 48 kHz, 16-bit [Английский - оригинал]

Отчёт MediaInfo

Полное имя : D:\Превосходство-Transcendence.(2014).BDRemux.[1080p].mkv
Формат : Matroska
Версия формата : Version 2
Размер файла : 18,7 Гбайт
Продолжительность : 1 ч. 59 м.
Режим общего битрейта : Переменный
Общий поток : 22,5 Мбит/сек
Название фильма : Transcendence (2014) / Lelya_K for NNM-Club
Дата кодирования : UTC 2014-07-10 16:58:06
Программа кодирования : mkvmerge v5.7.0 ('The Whirlwind') built on Aug 7 2012 14:11:40
Библиотека кодирования : libebml v1.2.3 + libmatroska v1.3.0
Attachment : Yes
Видео
Идентификатор : 1
Формат : AVC
Формат/Информация : Advanced Video Codec
Профиль формата : [url=mailto:High@L4.1]High@L4.1[/url]
Параметр CABAC формата : Да
Параметр ReFrames формата : 2 кадра
Идентификатор кодека : V_MPEG4/ISO/AVC
Продолжительность : 1 ч. 59 м.
Вид битрейта : Переменный
Битрейт : 18,5 Мбит/сек
Ширина : 1920 пикселей
Высота : 1080 пикселей
Соотношение сторон : 16:9
Режим частоты кадров : Постоянный
Частота кадров : 23,976 кадра/сек
Цветовое пространство : YUV
Субдискретизация насыщенности : 4:2:0
Битовая глубина : 8 бит
Тип развёртки : Прогрессивная
Бит/(Пиксели*Кадры) : 0.373
Размер потока : 15,5 Гбайт (82%)
Заголовок : Превосходство-Transcendence.(2014).BDRemux.[1080p]
Язык : English
Default : Да
Forced : Нет
Аудио #1
Идентификатор : 2
Формат : AC-3
Формат/Информация : Audio Coding 3
Расширение режима : CM (complete main)
Параметр Endianness формата : Big
Идентификатор кодека : A_AC3
Продолжительность : 1 ч. 59 м.
Вид битрейта : Постоянный
Битрейт : 384 Кбит/сек
Каналы : 6 каналов
Расположение каналов : Front: L C R, Side: L R, LFE
Частота : 48,0 КГц
Битовая глубина : 16 бит
Метод сжатия : С потерями
Размер потока : 328 Мбайт (2%)
Заголовок : AC3 5.1 / 384 kbps / Dub (пиратский)
Язык : Russian
Default : Да
Forced : Нет
Аудио #2
Идентификатор : 3
Формат : DTS
Формат/Информация : Digital Theater Systems
Профиль формата : MA / Core
Идентификатор кодека : A_DTS
Продолжительность : 1 ч. 59 м.
Вид битрейта : Переменный
Битрейт : 1561 Кбит/сек / 1510 Кбит/сек
Каналы : 6 каналов
Расположение каналов : Front: L C R, Side: L R, LFE
Частота : 48,0 КГц
Битовая глубина : 16 бит
Метод сжатия : Без потерь / Lossy
Заголовок : DTS-HD MA 5.1 / 2092 kbps / VO (Д. Есарев)
Язык : Russian
Default : Нет
Forced : Нет
Аудио #3
Идентификатор : 4
Формат : DTS
Формат/Информация : Digital Theater Systems
Профиль формата : MA / Core
Идентификатор кодека : A_DTS
Продолжительность : 1 ч. 59 м.
Вид битрейта : Переменный
Битрейт : 1561 Кбит/сек / 1510 Кбит/сек
Каналы : 6 каналов
Расположение каналов : Front: L C R, Side: L R, LFE
Частота : 48,0 КГц
Битовая глубина : 16 бит
Метод сжатия : Без потерь / Lossy
Заголовок : DTS-HD MA 5.1 / 2151 kbps / Original
Язык : English
Default : Нет
Forced : Нет
Текст #1
Идентификатор : 5
Формат : UTF-8
Идентификатор кодека : S_TEXT/UTF8
Идентификатор кодека/Информация : UTF-8 Plain Text
Заголовок : Full (Notabenoid)
Язык : Russian
Default : Нет
Forced : Нет
Текст #2
Идентификатор : 6
Формат : UTF-8
Идентификатор кодека : S_TEXT/UTF8
Идентификатор кодека/Информация : UTF-8 Plain Text
Заголовок : Full
Язык : English
Default : Нет
Forced : Нет
Текст #3
Идентификатор : 7
Формат : UTF-8
Идентификатор кодека : S_TEXT/UTF8
Идентификатор кодека/Информация : UTF-8 Plain Text
Заголовок : SDH
Язык : English
Default : Нет
Forced : Нет
Меню
00:00:00.000 : en:Chapter 1
00:11:20.846 : en:Chapter 2
00:19:21.827 : en:Chapter 3
00:31:00.775 : en:Chapter 4
00:39:46.675 : en:Chapter 5
00:50:20.434 : en:Chapter 6
01:00:26.289 : en:Chapter 7
01:11:07.972 : en:Chapter 8
01:20:12.098 : en:Chapter 9
01:29:36.037 : en:Chapter 10
01:40:32.776 : en:Chapter 11
01:50:53.772 : en:Chapter 12
Скриншоты:

[Профиль] [ЛС]
Кто просматривает тему:

Форум Тема Автор Размер
Кино СССР Адъютант его превосходительства [01-05 из 05] (1969) SATRip-AVC sergej644 6.16 GB
Мировая классика Диккенс Чарльз - Превосходный случай (2015) MP3 Swager 48 MB
Любовные романы и эротика История кавалера де Грие и Манон Леско (Антуан-Франсуа Прево) [2009, любовно-приключенческий роман, аудиокнига, MP3, 160 kbps, Денис Бгавин] Magnat 394 MB
Фильмы (HD DVD, Blu-ray и BDRemux) Превосходство / Supremacy (2014) BDRemux 1080p от NovaLan достали все 35.54 GB
Фильмы (HD Rips | 720p, 1080p) Превосходство / Transcendence (2014) BDRip 720p | D sergej644 2.11 GB
Зарубежные Превосходство / Transcendence (2014) BDRip [1080p] 3D [Вертикальная анаморфная стереопара] sergej644 7.96 GB
Фильмы 2014 года Превосходство / Transcendence (2014) BDRip-AVC от Wazzzup | D, A sergej644 931 MB
Фильмы 2014 года Превосходство / Transcendence (Уолли Пфистер / Wally Pfister) [2014, Великобритания, Китай, США, фантастика, боевик, триллер, драма, BDRip-AVC] VO (Д. Есарев) + Sub (Rus, Eng) + Original (Eng) bot 2.18 GB
Показать сообщения:    

Текущее время: Сегодня 14:43

Часовой пояс: GMT



Вы не можете начинать темы
Вы не можете отвечать на сообщения
Вы не можете редактировать свои сообщения
Вы не можете удалять свои сообщения
Вы не можете голосовать в опросах
Вы не можете прикреплять файлы к сообщениям
Вы не можете скачивать файлы