Превосходство / Transcendence (Уолли Пфистер / Wally Pfister) [2014, Великобритания, Китай, США, фантастика, триллер, драма, WEB-DLRip] VO (Д. Есарев)

 
Автор Сообщение

Создавать темы 13-Июл-2014 16:35

ПревосходствоTranscendence«What if a new intelligence was born?»- Страна: Великобритания, Китай, США
Жанр: фантастика, триллер, драма, детектив
Год выпуска: 2014
Продолжительность: 01:59:14-Перевод: Профессиональный (одноголосый) (Д. Есарев)
Субтитры: нет
Режиссер: Уолли Пфистер / Wally Pfister
В ролях:
Джонни Депп, Ребекка Холл, Пол Беттани, Киллиан Мёрфи, Кейт Мара, Коул Хаузер, Морган Фриман, Клифтон Коллинз мл., Кори Хардрикт, Фальк Хеншел...-Описание: Выдающийся исследователь в области изучения искусственного интеллекта Доктор Уилл Кастер работает над созданием компьютера, который сможет собрать в себе все знания и опыт, накопленные человечеством. Достаточно спорные эксперименты, проводимые Уиллом, прославили его, и в то же время сделали основной целью радикальной анти-технологической группировки. Экстремисты делают все возможное, чтобы остановить его.
Однако в своих попытках уничтожить Уилла они добиваются обратного и становятся невольными участниками становления его абсолютного превосходства. Для его жены Эвелин и лучшего друга Макса Вотерса, тоже ученых-исследователей, встает вопрос должны ли они продолжать этот эксперимент. Их худшие опасения претворяются в жизнь, когда жажда знаний Уилла переходит в неконтролируемую жажду власти...-
MPAA: PG-13 - Детям до 13 лет просмотр не желателен-Качество: WEB-DLRip | Исходник WEB-DL 720p | sample
Контейнер: AVI
Видео: XviD, 688x288 (2.40:1), 740 kbps, 23,976 fps, 0,156 bpp
Аудио: MP3 / 2.0 / 48 kHz / 128 kbps /-

Скриншоты

Media Info

General
Complete name : E:\my_rip\Transcendence.2014.AVO.WEB-DLRip.by.Дядя_Лёша.avi
Format : AVI
Format/Info : Audio Video Interleave
File size : 749 MiB
Duration : 1h 59mn
Overall bit rate : 878 Kbps
Writing application : VirtualDubMod 1.5.10.3 | www.virtualdub-fr.org || (build 2550/release)
Writing library : VirtualDubMod build 2550/release
Video
ID : 0
Format : MPEG-4 Visual
Format profile : Advanced Simple@L5
Format settings, BVOP : 1
Format settings, QPel : No
Format settings, GMC : No warppoints
Format settings, Matrix : Custom
Codec ID : XVID
Codec ID/Hint : XviD
Duration : 1h 59mn
Bit rate : 741 Kbps
Width : 688 pixels
Height : 288 pixels
Display aspect ratio : 2.40:1
Frame rate : 23.976 fps
Color space : YUV
Chroma subsampling : 4:2:0
Bit depth : 8 bits
Scan type : Progressive
Compression mode : Lossy
Bits/(Pixel*Frame) : 0.156
Stream size : 632 MiB (84%)
Writing library : XviD 65
Audio
ID : 1
Format : MPEG Audio
Format version : Version 1
Format profile : Layer 3
Mode : Joint stereo
Codec ID : 55
Codec ID/Hint : MP3
Duration : 1h 59mn
Bit rate mode : Constant
Bit rate : 128 Kbps
Channel(s) : 2 channels
Sampling rate : 48.0 KHz
Compression mode : Lossy
Stream size : 109 MiB (15%)
Alignment : Aligned on interleaves
Interleave, duration : 42 ms (1.00 video frame)
Interleave, preload duration : 504 ms
Writing library : LAME3.99r
Encoding settings : -m j -V 4 -q 2 -lowpass 17 -b 128
Перевод Дмитрия Есарева доступен благодаря пользователям Переулка Переводмана: mihaildns, dikii, будулайроманов, Kruj0k, Прохожий.
Работа со звуком - mihaildns.
 
Показать сообщения:    

Текущее время: Сегодня 13:03

Часовой пояс: GMT



Вы не можете начинать темы
Вы не можете отвечать на сообщения
Вы не можете редактировать свои сообщения
Вы не можете удалять свои сообщения
Вы не можете голосовать в опросах
Вы не можете прикреплять файлы к сообщениям
Вы не можете скачивать файлы