Превосходство бегемота / The Hippo Supremacy (Каролин Бретт / Caroline Brett) [2012, Документальный, HDTVRip 720p]

 
Автор Сообщение

TorrentFilm ®

Пол:

Стаж: 2 года

Сообщений: 7741



Награды: Нет

Торрент-статистика

Создавать темы 20-Июн-2015 00:06

[Цитировать]

Превосходство бегемота \ The Hippo Supremacy
Год выпуска: 2012
Жанр: Документальный
Продолжительность: 00:44:59
Перевод: Профессиональный (дублированный)
Доп. инфо о переводе: АРК-ТВ (Денис Некрасов)
Режиссер: Каролин Бретт / Caroline Brett
Описание: Бегемотам реки Луангвы в Замбии живётся легко, по крайней мере, так кажется. Жизнь одних из самых тяжелых существ на Земле колеблется между безмятежным загоранием на солнышке и ужасными проявлениями жестокости и агрессии. Вероятность для молодых бегемотов быть растоптанными своими же сородичами выше, чем стать жертвой охоты соседей - крокодилов. Крокодилы и гиппопотамы поддерживают симбиотическое перемирие, в то время как схватки самцов бегемотов могут иметь трагические последствия. Эта действительность, когда мать, рискуя собой, защищает своего детёныша, показана в "Превосходстве бегемота".
Сэмпл: http://multi-up.com/1054219
Тип релиза: HDTVRip 720p
Контейнер: MKV
Видео: H.264, 1280x720 (16:9), 4600 Kbps, 25 fps, 0,2 bit\pixel
Аудио RUS: AC3, 192 Кбит/с, 48 kHz, 2 ch
Аудио ENG: AC3, 192 Кбит/с, 48 kHz, 2 ch

Исходник: HDTV1080i спасибо LeXa 84

x264 log

avs [info]: 1280x720p 1:1 @ 25/1 fps (cfr)
x264 [info]: using SAR=1/1
x264 [info]: using cpu capabilities: MMX2 SSE2Fast SSSE3 SSE4.2 AVX
x264 [info]: profile High, level 4.1
x264 [info]: frame I:50 Avg QP:10.86 size:231254
x264 [info]: frame P:627 Avg QP:18.50 size: 38541
x264 [info]: frame B:1873 Avg QP:21.68 size: 12314
x264 [info]: consecutive B-frames: 5.5% 6.9% 7.5% 40.5% 3.7% 2.6% 0.8% 3.1% 29.3%
x264 [info]: mb I I16..4: 10.5% 56.1% 33.4%
x264 [info]: mb P I16..4: 1.2% 19.0% 5.0% P16..4: 23.7% 18.7% 10.2% 0.0% 0.0% skip:22.2%
x264 [info]: mb B I16..4: 0.2% 3.4% 1.7% B16..8: 19.1% 9.0% 2.5% direct: 5.1% skip:59.0% L0:40.6% L1:39.7% BI:19.7%
x264 [info]: 8x8 transform intra:68.8% inter:59.9%
x264 [info]: direct mvs spatial:98.5% temporal:1.5%
x264 [info]: coded y,uvDC,uvAC intra: 92.8% 66.5% 29.1% inter: 21.4% 15.9% 0.7%
x264 [info]: i16 v,h,dc,p: 18% 30% 18% 34%
x264 [info]: i8 v,h,dc,ddl,ddr,vr,hd,vl,hu: 6% 41% 5% 5% 6% 5% 11% 6% 14%
x264 [info]: i4 v,h,dc,ddl,ddr,vr,hd,vl,hu: 5% 47% 3% 4% 6% 5% 11% 5% 13%
x264 [info]: i8c dc,h,v,p: 36% 38% 15% 11%
x264 [info]: Weighted P-Frames: Y:1.0% UV:0.3%
x264 [info]: ref P L0: 60.8% 15.9% 13.1% 3.7% 2.8% 1.8% 1.6% 0.3% 0.0%
x264 [info]: ref B L0: 87.4% 7.3% 2.7% 1.4% 0.8% 0.4%
x264 [info]: ref B L1: 97.3% 2.7%
x264 [info]: kb/s:4611.10
x264 [total]: encoded 2550 frames, 12.33 fps, 4611.10 kb/s

MediaInfo

GeneralUnique ID : 229128342359315273646344202427662989965 (0xAC6083790BB63F129E48D6B389A5FA8D)Complete name : D:\Видео\Флора и фауна\The Hippo Supremacy HDTVRip-720p.2012.mkvFormat : MatroskaFormat version : Version 4 / Version 2File size : 1.57 GiBDuration : 44mn 59sOverall bit rate : 4 986 KbpsEncoded date : UTC 2015-06-17 12:19:44Writing application : mkvmerge v7.9.0 ('Birds') 64bitWriting library : libebml v1.3.1 + libmatroska v1.4.2DURATION : 00:44:59.784000000NUMBER_OF_FRAMES : 112491NUMBER_OF_BYTES : 64794816_STATISTICS_WRITING_APP : mkvmerge v7.9.0 ('Birds') 64bit_STATISTICS_WRITING_DATE_UTC : 2015-06-17 12:19:44_STATISTICS_TAGS : BPS DURATION NUMBER_OF_FRAMES NUMBER_OF_BYTES
VideoID : 1Format : AVCFormat/Info : Advanced Video CodecFormat profile : High@L4.1Format settings, CABAC : YesFormat settings, ReFrames : 7 framesCodec ID : V_MPEG4/ISO/AVCDuration : 44mn 59sBit rate : 4 600 KbpsWidth : 1 280 pixelsHeight : 720 pixelsDisplay aspect ratio : 16:9Frame rate mode : ConstantFrame rate : 25.000 fpsColor space : YUVChroma subsampling : 4:2:0Bit depth : 8 bitsScan type : ProgressiveBits/(Pixel*Frame) : 0.200Stream size : 1.42 GiB (90%)Writing library : x264 core 146 r2538 121396cEncoding settings : cabac=1 / ref=7 / deblock=1:0:0 / analyse=0x3:0x113 / me=umh / subme=9 / psy=1 / psy_rd=1.05:0.15 / mixed_ref=1 / me_range=32 / chroma_me=1 / trellis=2 / 8x8dct=1 / cqm=0 / deadzone=21,11 / fast_pskip=1 / chroma_qp_offset=-3 / threads=6 / lookahead_threads=1 / sliced_threads=0 / nr=0 / decimate=1 / interlaced=0 / bluray_compat=0 / constrained_intra=0 / bframes=8 / b_pyramid=2 / b_adapt=2 / b_bias=0 / direct=3 / weightb=1 / open_gop=0 / weightp=2 / keyint=250 / keyint_min=25 / scenecut=40 / intra_refresh=0 / rc_lookahead=60 / rc=2pass / mbtree=1 / bitrate=4600 / ratetol=1.0 / qcomp=0.60 / qpmin=0 / qpmax=69 / qpstep=4 / cplxblur=20.0 / qblur=0.5 / vbv_maxrate=14000 / vbv_bufsize=14000 / nal_hrd=none / filler=0 / ip_ratio=1.40 / aq=1:1.00Default : YesForced : No
Audio #1ID : 2Format : MPEG AudioFormat version : Version 1Format profile : Layer 2Codec ID : A_MPEG/L2Codec ID/Hint : MP2Duration : 44mn 59sBit rate mode : ConstantBit rate : 192 KbpsChannel(s) : 2 channelsSampling rate : 48.0 KHzCompression mode : LossyStream size : 61.8 MiB (4%)Language : RussianDefault : YesForced : No
Audio #2ID : 3Format : MPEG AudioFormat version : Version 1Format profile : Layer 2Codec ID : A_MPEG/L2Codec ID/Hint : MP2Duration : 44mn 59sBit rate mode : ConstantBit rate : 192 KbpsChannel(s) : 2 channelsSampling rate : 48.0 KHzCompression mode : LossyStream size : 61.8 MiB (4%)Language : EnglishDefault : NoForced : No
Audio #1ID : 2Format : MPEG AudioFormat version : Version 1Format profile : Layer 2Codec ID : A_MPEG/L2Codec ID/Hint : MP2Duration : 44mn 59sBit rate mode : ConstantBit rate : 192 KbpsChannel(s) : 2 channelsSampling rate : 48.0 KHzCompression mode : LossyStream size : 61.8 MiB (4%)Language : RussianDefault : YesForced : No
Audio #2ID : 3Format : MPEG AudioFormat version : Version 1Format profile : Layer 2Codec ID : A_MPEG/L2Codec ID/Hint : MP2Duration : 44mn 59sBit rate mode : ConstantBit rate : 192 KbpsChannel(s) : 2 channelsSampling rate : 48.0 KHzCompression mode : LossyStream size : 61.8 MiB (4%)Language : EnglishDefault : NoForced : No

Скриншоты

[Профиль] [ЛС]
Показать сообщения:    

Текущее время: Сегодня 18:45

Часовой пояс: GMT



Вы не можете начинать темы
Вы не можете отвечать на сообщения
Вы не можете редактировать свои сообщения
Вы не можете удалять свои сообщения
Вы не можете голосовать в опросах
Вы не можете прикреплять файлы к сообщениям
Вы не можете скачивать файлы