Практическая магия / Practical Magic (1998) BDRip 1080p by msltel | D, P, 2 x A, L1

 
Автор Сообщение

sergej644 ®

Пол:

Стаж: 4 года 11 месяцев

Сообщений: 6041

Откуда: Soviet Union



Награды: Нет

Торрент-статистика

Создавать темы 16-Фев-2015 18:57

[Цитировать]

Год выпуска: 1998
Страна: США, Австралия
Жанр: фэнтези, мелодрама, комедия
Продолжительность: 01:44:13
Перевод: дублированный, профессиональный многоголосый, авторский, одноголосый закадровый
Субтитры: русские, английские
Режиссёр: Гриффин Данн
В ролях: Сандра Баллок, Николь Кидман, Стокард Чэннинг, Дайэнн Уист, Горан Вишнич, Эйдан Куинн, Ивэн Рэйчел Вуд, Александра Артрип, Марк Фойерстин, Каприс Бенедетти
Описание: Женская мистика. Странные слухи ходят про дом Оуэнсов: что, будто бы, хозяйки особняка - ведьмы, и что каждый, кто полюбится юным сестрам-ведьмам, обречён умереть молодым. Слухи слухами, однако очаровательным сёстрам вовсе не свойственны злые помыслы, они, как и все нормальные женщины, хотят любить и быть счастливыми...

Качество: BDRip 1080p
Формат: MKV
Видео кодек: H.264
Видео: 10.6 Mбит/с, 1920x800, 23.976 кадра/с, 0.289 bpp
Аудио 1: русский, AC3, 384 kbps, 6 ch, 48 kHz [дублированный, Варус видео]
Аудио 2: русский, AC3, 192 kbps, 2 ch, 48 kHz [профессиональный многоголосый, PTP]
Аудио 3: русский, AC3, 384 kbps, 6 ch, 48 kHz [авторский, Юрий Живов]
Аудио 4: русский, AC3, 192 kbps, 2 ch, 48 kHz [авторский, Александр Кашкин (Первомайский)]
Аудио 5: русский, AC3, 192 kbps, 2 ch, 48 kHz [закадровый одноголосый]
Аудио 6: английский, DTS, 1509 kbps, 6 ch, 48 kHz [оригинал]
Имеются поименованные главы/чаптеры.

MediaInfo

Общее
Уникальный идентификатор : 229671298332152814011148591777394458520 (0xACC91544E3AF53FC90BE239A362FFF98)
Полное имя : D:VideoPrakticheskaja magija.1998.BDRip.1080p.mkv
Формат : Matroska
Версия формата : Version 4 / Version 2
Размер файла : 10,0 Гбайт
Продолжительность : 1 ч. 44 м.
Общий поток : 13,8 Мбит/сек
Дата кодирования : UTC 2015-02-08 03:40:06
Программа кодирования : mkvmerge v7.5.0 ('Glass Culture') 64bit built on Jan 4 2015 16:48:44
Библиотека кодирования : libebml v1.3.1 + libmatroska v1.4.2
_STATISTICS_WRITING_APP : mkvmerge v7.5.0 ('Glass Culture') 64bit built on Jan 4 2015 16:48:44
_STATISTICS_WRITING_DATE_UTC : 2015-02-08 03:40:06
_STATISTICS_TAGS : BPS DURATION NUMBER_OF_FRAMES NUMBER_OF_BYTES
DURATION : 01:44:10.038000000
NUMBER_OF_FRAMES : 585941
NUMBER_OF_BYTES : 1178914144
Видео
Идентификатор : 1
Формат : AVC
Формат/Информация : Advanced Video Codec
Профиль формата : High@L4.1
Параметр CABAC формата : Да
Параметр ReFrames формата : 4 кадра
Идентификатор кодека : V_MPEG4/ISO/AVC
Продолжительность : 1 ч. 44 м.
Битрейт : 10,6 Мбит/сек
Ширина : 1920 пикселей
Высота : 800 пикселей
Соотношение сторон : 2,40:1
Режим частоты кадров : Постоянный
Частота кадров : 23,976 кадра/сек
Цветовое пространство : YUV
Субдискретизация насыщенности : 4:2:0
Битовая глубина : 8 бит
Тип развёртки : Прогрессивная
Бит/(Пиксели*Кадры) : 0.289
Размер потока : 7,75 Гбайт (77%)
Заголовок : BDRip -- STarankov
Библиотека кодирования : x264 core 142 r2431 ac76440
Настройки программы : cabac=1 / ref=4 / deblock=1:-1:-1 / analyse=0x3:0x113 / me=umh / subme=10 / psy=1 / psy_rd=1.00:0.15 / mixed_ref=1 / me_range=32 / chroma_me=1 / trellis=2 / 8x8dct=1 / cqm=0 / deadzone=21,11 / fast_pskip=1 / chroma_qp_offset=-3 / threads=6 / lookahead_threads=1 / sliced_threads=0 / nr=0 / decimate=1 / interlaced=0 / bluray_compat=0 / constrained_intra=0 / bframes=8 / b_pyramid=2 / b_adapt=2 / b_bias=0 / direct=3 / weightb=1 / open_gop=0 / weightp=2 / keyint=230 / keyint_min=23 / scenecut=40 / intra_refresh=0 / rc_lookahead=40 / rc=crf / mbtree=0 / crf=19.4 / qcomp=0.60 / qpmin=0 / qpmax=69 / qpstep=4 / vbv_maxrate=40000 / vbv_bufsize=50000 / crf_max=0.0 / nal_hrd=none / filler=0 / ip_ratio=1.40 / pb_ratio=1.30 / aq=1:1.00
Язык : English
Default : Да
Forced : Нет
DURATION : 01:44:09.994000000
NUMBER_OF_FRAMES : 149850
NUMBER_OF_BYTES : 8533619415
_STATISTICS_WRITING_APP : mkvmerge v7.5.0 ('Glass Culture') 64bit built on Jan 4 2015 16:48:44
_STATISTICS_WRITING_DATE_UTC : 2015-02-08 03:40:06
_STATISTICS_TAGS : BPS DURATION NUMBER_OF_FRAMES NUMBER_OF_BYTES
Аудио #1
Идентификатор : 2
Формат : AC-3
Формат/Информация : Audio Coding 3
Расширение режима : CM (complete main)
Параметр Endianness формата : Big
Идентификатор кодека : A_AC3
Продолжительность : 1 ч. 44 м.
Вид битрейта : Постоянный
Битрейт : 384 Кбит/сек
Каналы : 6 каналов
Расположение каналов : Front: L C R, Side: L R, LFE
Частота : 48,0 КГц
Битовая глубина : 16 бит
Метод сжатия : С потерями
Размер потока : 286 Мбайт (3%)
Заголовок : DUB (Варус видео)
Язык : Russian
Default : Да
Forced : Нет
Аудио #2
Идентификатор : 3
Формат : AC-3
Формат/Информация : Audio Coding 3
Расширение режима : CM (complete main)
Параметр Endianness формата : Big
Идентификатор кодека : A_AC3
Продолжительность : 1 ч. 44 м.
Вид битрейта : Постоянный
Битрейт : 192 Кбит/сек
Каналы : 2 канала
Расположение каналов : Front: L R
Частота : 48,0 КГц
Битовая глубина : 16 бит
Метод сжатия : С потерями
Размер потока : 143 Мбайт (1%)
Заголовок : MVO (PTP)
Язык : Russian
Default : Нет
Forced : Нет
Аудио #3
Идентификатор : 4
Формат : AC-3
Формат/Информация : Audio Coding 3
Расширение режима : CM (complete main)
Параметр Endianness формата : Big
Идентификатор кодека : A_AC3
Продолжительность : 1 ч. 44 м.
Вид битрейта : Постоянный
Битрейт : 384 Кбит/сек
Каналы : 6 каналов
Расположение каналов : Front: L C R, Side: L R, LFE
Частота : 48,0 КГц
Битовая глубина : 16 бит
Метод сжатия : С потерями
Размер потока : 286 Мбайт (3%)
Заголовок : AVO (Юрий Живов)
Язык : Russian
Default : Нет
Forced : Нет
Аудио #4
Идентификатор : 5
Формат : AC-3
Формат/Информация : Audio Coding 3
Расширение режима : CM (complete main)
Параметр Endianness формата : Big
Идентификатор кодека : A_AC3
Продолжительность : 1 ч. 44 м.
Вид битрейта : Постоянный
Битрейт : 192 Кбит/сек
Каналы : 2 канала
Расположение каналов : Front: L R
Частота : 48,0 КГц
Битовая глубина : 16 бит
Метод сжатия : С потерями
Размер потока : 143 Мбайт (1%)
Заголовок : AVO (Александр Кашкин (Первомайский))
Язык : Russian
Default : Нет
Forced : Нет
Аудио #5
Идентификатор : 6
Формат : AC-3
Формат/Информация : Audio Coding 3
Расширение режима : CM (complete main)
Параметр Endianness формата : Big
Идентификатор кодека : A_AC3
Продолжительность : 1 ч. 44 м.
Вид битрейта : Постоянный
Битрейт : 192 Кбит/сек
Каналы : 2 канала
Расположение каналов : Front: L R
Частота : 48,0 КГц
Битовая глубина : 16 бит
Метод сжатия : С потерями
Размер потока : 143 Мбайт (1%)
Заголовок : VO (одноголосый закадровый)
Язык : Russian
Default : Нет
Forced : Нет
Аудио #6
Идентификатор : 7
Формат : DTS
Формат/Информация : Digital Theater Systems
Режим : 16
Параметр Endianness формата : Big
Идентификатор кодека : A_DTS
Продолжительность : 1 ч. 44 м.
Вид битрейта : Постоянный
Битрейт : 1509 Кбит/сек
Каналы : 6 каналов
Расположение каналов : Front: L C R, Side: L R, LFE
Частота : 48,0 КГц
Битовая глубина : 24 бит
Метод сжатия : С потерями
Размер потока : 1,10 Гбайт (11%)
Заголовок : Original
Язык : English
Default : Нет
Forced : Нет
Текст #1
Идентификатор : 8
Формат : UTF-8
Идентификатор кодека : S_TEXT/UTF8
Идентификатор кодека/Информация : UTF-8 Plain Text
Заголовок : русский
Язык : Russian
Default : Нет
Forced : Нет
Текст #2
Идентификатор : 9
Формат : UTF-8
Идентификатор кодека : S_TEXT/UTF8
Идентификатор кодека/Информация : UTF-8 Plain Text
Заголовок : английский
Default : Нет
Forced : Нет
Меню
00:00:00.000 : en:Maria's Curse
00:04:17.465 : en:Love Spells
00:08:24.587 : en:Blood Oath
00:09:59.724 : en:Two Perfect Lives
00:14:42.131 : en:Beetlemania
00:16:41.250 : en:Uncastable Spells
00:18:50.379 : en:Together Again
00:25:17.015 : en:Hurt Feelings
00:28:33.378 : en:Blood on the Moon
00:32:04.631 : en:Not Prescribed Dose
00:36:07.123 : en:Rude Awakening
00:43:04.915 : en:Phone Tree Day
00:47:11.745 : en:Midnight Margaritas
00:49:16.828 : en:Man By the Roses
00:54:32.602 : en:Penal Sort/Visitor
00:57:45.462 : en:Font of Information
01:01:35.274 : en:What Folks Say
01:04:40.042 : en:What Love Is Like
01:08:04.622 : en:A Couple of Times
01:10:59.296 : en:Pancakes/Surprises
01:14:00.477 : en:Sisterly Spat
01:15:56.301 : en:Gary's Promise
01:20:06.718 : en:He's Back
01:23:06.982 : en:Wished for You Too
01:26:33.104 : en:Convening a Coven
01:30:42.019 : en:The Ritual Begins
01:34:10.519 : en:Bonded By Magic
01:35:47.658 : en:Cleaning House
01:37:04.944 : en:For the Right Guy
01:39:15.282 : en:Whenever You Can
01:40:36.196 : en:End Credits

Скриншоты


[Профиль] [ЛС]
Показать сообщения:    

Текущее время: Сегодня 12:50

Часовой пояс: GMT



Вы не можете начинать темы
Вы не можете отвечать на сообщения
Вы не можете редактировать свои сообщения
Вы не можете удалять свои сообщения
Вы не можете голосовать в опросах
Вы не можете прикреплять файлы к сообщениям
Вы не можете скачивать файлы