Праздник святого Йоргена (1930) DVDRip от New-Team

 
Автор Сообщение

sergej644 ®

Пол:

Стаж: 4 года 11 месяцев

Сообщений: 6045

Откуда: Soviet Union



Награды: Нет

Торрент-статистика

Создавать темы 05-Ноя-2014 15:59

[Цитировать]

Страна: СССР
Производство: Межрабпом
Жанр: комедия
Год выпуска: 1930
Продолжительность: 01:19:59
Перевод: не требуется
Оригинальная аудиодорожка: русский
Cубтитры: нет
Режиссер: Яков Протазанов
В ролях:
Анатолий Кторов, Игорь Ильинский, Мария Стрелкова, Игорь Аркадин, Михаил Климов, Владимир Уральский, Анатолий Горюнов, Феофан Шипулинский, Николай Кутузов...
Описание:
Накануне церковного праздника из тюрьмы бежит вор Коркис. Смешавшись с толпой прихожан, герой вместе с сообщником оказывается у храма. Увидев, сколько денег оседает в карманах священнослужителей, Коркис не может удержаться от очередной авантюры…- -Исходник: DVD5 R5
Тип релиза: DVDRip
Контейнер: AVI
Видео: 688x512 (4:3), 25 fps, XviD ~ 2406 kbps avg, 0.273 bit/pixel
Аудио: 48 kHz, Dolby Digital AC3 2.0, 192 kbps
Раздача от:

MediaInfo

Общее
Полное имя : Prazdnik.svyatogo.Yorgena.1930.DVDRip_[New-team]_by_AVP_Studio.avi
Формат : AVI
Формат/Информация : Audio Video Interleave
Размер файла : 1,46 Гбайт
Продолжительность : 1 ч. 19 м.
Общий поток : 2608 Кбит/сек
Программа кодирования : VirtualDubModRus 1.5.10.2 (build 2542/release)
Библиотека кодирования : VirtualDubMod build 2542/release
Видео
Идентификатор : 0
Формат : MPEG-4 Visual
Профиль формата : Advanced Simple@L5
Параметр BVOP формата : 1
Параметр QPel формата : Нет
Параметр GMC формата : Без точки перехода
Параметр матрицы формата : Выборочная
Идентификатор кодека : XVID
Идентификатор кодека/Подсказка : XviD
Продолжительность : 1 ч. 19 м.
Битрейт : 2406 Кбит/сек
Ширина : 688 пикселей
Высота : 512 пикселей
Соотношение сторон : 4:3
Частота кадров : 25,000 кадров/сек
Цветовое пространство : YUV
Субдискретизация насыщенности : 4:2:0
Битовая глубина : 8 бит
Тип развёртки : Прогрессивная
Метод сжатия : С потерями
Бит/(Пиксели*Кадры) : 0.273
Размер потока : 1,34 Гбайт (92%)
Библиотека кодирования : XviD 73
Аудио
Идентификатор : 1
Формат : AC-3
Формат/Информация : Audio Coding 3
Расширение режима : CM (complete main)
Параметр Endianness формата : Big
Идентификатор кодека : 2000
Продолжительность : 1 ч. 19 м.
Вид битрейта : Постоянный
Битрейт : 192 Кбит/сек
Каналы : 2 канала
Расположение каналов : Front: L R
Частота : 48,0 КГц
Битовая глубина : 16 бит
Метод сжатия : С потерями
Размер потока : 110 Мбайт (7%)
Выравнивание : Разделение по промежуткам
Продолжительность промежутка : 40 мс. (1,00 видеокадр)
Время предзагрузки промежутка : 500 мс

Скриншоты

[Профиль] [ЛС]

Создавать темы 06-Авг-2015 22:59 (спустя 9 месяцев 1 день)

Топик был перенесен из форума Фильмы до 2014 года в форум Классика зарубежного кино
sergej644
 
Показать сообщения:    

Текущее время: Сегодня 22:21

Часовой пояс: GMT



Вы не можете начинать темы
Вы не можете отвечать на сообщения
Вы не можете редактировать свои сообщения
Вы не можете удалять свои сообщения
Вы не можете голосовать в опросах
Вы не можете прикреплять файлы к сообщениям
Вы не можете скачивать файлы