Праздники детства (Юрий Григорьев, Ренита Григорьева) [1981, драма, экранизация, DVB]

 
Автор Сообщение

reversefile ®

Пол:

Стаж: 4 года 5 месяцев

Сообщений: 842

Откуда: ReverseFile.org



Награды: Нет

Торрент-статистика

Создавать темы 11-Авг-2014 06:23

[Цитировать]

Праздники детства
Жанр: драма, экранизация
Год выпуска: 1981
Продолжительность: 01:21:26
Режиссёр: Юрий Григорьев, Ренита Григорьева
В ролях: Людмила Зайцева, Сергей Амосов (II), Оксана Захарова, Геннадий Воронин, Алексей Ванин, Николай Михеев, Светлана Скрипкина, Василий Бровкин, Надежда Ядыкина, Юрий Усачев
Описание: По мотивам автобиографических рассказов Василия Шукшина. О детстве мальчика из далекого алтайского села, о его сестре и матери, об их драматической жизни в годы 2-й мировой войны.
Доп. информация: Запись потока *.ts со спутника HOT BIRD, ремукс в *.mpg программой VideoReDo.
Качество видео: DVB
Формат видео: MPEG-PS
Видео: MPEG Video, 704(768)x576 (4:3), 25,000 кадров/сек, 2 646 Кбит/сек
Аудио: MPEG Audio, 48,0 КГц, 192 Кбит/сек, 2 канала

MediaInfo

General
Complete name : D:\MPG\ПРАЗДНИКИ ДЕТСТВА (Nashe Kino).mpg
Format : MPEG-PS
File size : 1.65 GiB
Duration : 1h 21mn
Overall bit rate mode : Variable
Overall bit rate : 2 896 Kbps
Video
ID : 224 (0xE0)
Format : MPEG Video
Format version : Version 2
Format profile : Main@Main
Format settings, BVOP : Yes
Format settings, Matrix : Custom
Format settings, GOP : Variable
Duration : 1h 21mn
Bit rate mode : Variable
Bit rate : 2 646 Kbps
Maximum bit rate : 15.0 Mbps
Width : 704 pixels
Height : 576 pixels
Display aspect ratio : 4:3
Frame rate : 25.000 fps
Standard : PAL
Color space : YUV
Chroma subsampling : 4:2:0
Bit depth : 8 bits
Scan type : Interlaced
Scan order : Top Field First
Compression mode : Lossy
Bits/(Pixel*Frame) : 0.261
Time code of first frame : 00:00:00:00
Time code source : Group of pictures header
Stream size : 1.51 GiB (91%)
Audio
ID : 192 (0xC0)
Format : MPEG Audio
Format version : Version 1
Format profile : Layer 2
Duration : 1h 21mn
Bit rate mode : Constant
Bit rate : 192 Kbps
Channel count : 2 channels
Sampling rate : 48.0 KHz
Compression mode : Lossy
Stream size : 112 MiB (7%)
[Профиль] [ЛС]

Создавать темы 06-Авг-2015 22:03 (спустя 11 месяцев 26 дней)

Топик был перенесен из форума Кино СССР в форум Кино СССР
sergej644
 
Показать сообщения:    

Текущее время: Сегодня 04:31

Часовой пояс: GMT



Вы не можете начинать темы
Вы не можете отвечать на сообщения
Вы не можете редактировать свои сообщения
Вы не можете удалять свои сообщения
Вы не можете голосовать в опросах
Вы не можете прикреплять файлы к сообщениям
Вы не можете скачивать файлы