Право на Садо Мазо / SM-rechter (Эрик Ламенс / Erik Lamens) [2009, Бельгия, драма, биография, DVDRip] VO (den904) + Original Dut

 
Автор Сообщение

TorrentFilm ®

Пол:

Стаж: 2 года

Сообщений: 7741



Награды: Нет

Торрент-статистика

Создавать темы 29-Янв-2015 00:00

[Цитировать]

Право на Садо Мазо / SM-rechter / S&M Judge
Страна: Бельгия
Жанр: драма, биография
Год выпуска: 2009
Продолжительность: 01:24:30
Перевод: Одноголосый закадровый den904
Cубтитры: нет
Оригинальная аудиодорожка: нидерландский
Режиссер: Эрик Ламенс / Erik Lamens
В ролях: Джин Бервутс, Верле Доббеларе, Кэрри Гуссенс, Гюнтер Лесаж, Барбара Сарафьян, Дирк ван Дейк
Описание: Фильм основан на реальных события. В 1997 году бельгийская общественность была в шоке, когда судья Эрик А. был осужден за садо мазо с женой. Приговор и шум в СМИ, оборвали профессиональную карьеру и хорошие отношения с дочерью. И хотя их профессиональной и личной жизни пришел конец, Эрик и его жена Магда остаются вместе и сегодня. Этот фильм, история о темных сторонах сексуальности и истинной любви, рассказанная с единственной точки зрения самих влюбленных.

Сэмпл: http://sendfile.su/1079172
Качество видео: DVDRip
Формат видео: AVI
Видео: XVID, 720x404, 16:9, 25 fps, 1 381 Kbps
Аудио: MP3, 44.1 KHz, 256 Kbps, 2 channels
Аудио 2: AC-3, 48.0 KHz, 448 Kbps, 6 channels

MediaInfo

General
Complete name : F:\MOVIES 1\SM-Rechter (2009)DVDr.nl.subs.NLT-Release (DivX)\Film\SM-rechter 2009.avi
Format : AVI
Format/Info : Audio Video Interleave
File size : 1.24 GiB
Duration : 1h 24mn
Overall bit rate : 2 099 Kbps
Movie name : SM-rechter
Writing application : VirtualDubMod 1.5.10.2 (build 2542/release)
Writing library : VirtualDubMod build 2542/release
Original source form/Name : SMRCHTR
Video
ID : 0
Format : MPEG-4 Visual
Format profile : Simple@L3
Format settings, BVOP : No
Format settings, QPel : No
Format settings, GMC : No warppoints
Format settings, Matrix : Default (H.263)
Codec ID : XVID
Codec ID/Hint : XviD
Duration : 1h 24mn
Bit rate : 1 381 Kbps
Width : 720 pixels
Height : 404 pixels
Display aspect ratio : 16:9
Frame rate : 25.000 fps
Color space : YUV
Chroma subsampling : 4:2:0
Bit depth : 8 bits
Scan type : Progressive
Compression mode : Lossy
Bits/(Pixel*Frame) : 0.190
Stream size : 835 MiB (66%)
Writing library : XviD 1.2.1 (UTC 2008-12-04)
Audio #1
ID : 1
Format : MPEG Audio
Format version : Version 1
Format profile : Layer 3
Codec ID : 55
Codec ID/Hint : MP3
Duration : 1h 24mn
Bit rate mode : Constant
Bit rate : 256 Kbps
Channel(s) : 2 channels
Sampling rate : 44.1 KHz
Compression mode : Lossy
Stream size : 155 MiB (12%)
Alignment : Split accross interleaves
Interleave, duration : 40 ms (1.00 video frame)
Interleave, preload duratio : 500 ms
Audio #2
ID : 2
Format : AC-3
Format/Info : Audio Coding 3
Mode extension : CM (complete main)
Format settings, Endianness : Big
Codec ID : 2000
Duration : 1h 24mn
Bit rate mode : Constant
Bit rate : 448 Kbps
Channel(s) : 6 channels
Channel positions : Front: L C R, Side: L R, LFE
Sampling rate : 48.0 KHz
Bit depth : 16 bits
Compression mode : Lossy
Stream size : 271 MiB (21%)
Alignment : Split accross interleaves
Interleave, duration : 40 ms (1.00 video frame)
Interleave, preload duratio : 500 ms

Скриншот c названием фильма

Скриншоты

[Профиль] [ЛС]

Создавать темы 06-Авг-2015 22:47 (спустя 6 месяцев 8 дней)

Топик был перенесен из форума Фильмы до 2014 года в форум Фильмы до 2012 года
sergej644
 

Создавать темы 12-Июн-2016 08:48 (спустя 1 год 4 месяца)

Топик был перенесен из форума Фильмы 2011 года в форум Фильмы 2009 года
Russian Mafia
 
Показать сообщения:    

Текущее время: Сегодня 13:52

Часовой пояс: GMT



Вы не можете начинать темы
Вы не можете отвечать на сообщения
Вы не можете редактировать свои сообщения
Вы не можете удалять свои сообщения
Вы не можете голосовать в опросах
Вы не можете прикреплять файлы к сообщениям
Вы не можете скачивать файлы