Правдивая ложь / True Lies (1994) WEBRip 1080p | D, P

 
Автор Сообщение

Russian Mafia ®

Пол:

Стаж: 1 год 8 месяцев

Сообщений: 4253



Награды: 10 (Подробнее)

Top Releaser 5 (Количество: 1) За внесенный вклад в развитие сайта (Количество: 1) Mega Seeder 3 (Количество: 1)
Торрент-статистика

Создавать темы 15-Окт-2016 16:37

[Цитировать]

Информация о фильме
Название: Правдивая ложь
Оригинальное название: True Lies
Год выхода: 1994
Жанр: Боевик, Триллер, Комедия
Режиссер: Джеймс Кемерон
В ролях: Арнольд Шварценеггер, Джейми Ли Кёртис, Том Арнольд, Билл Пэкстон, Тиа Каррере, Арт Малик, Элиза Душку, Грант Хеслов, Чарлтон Хестон, Маршалл Манеш
О фильме:
Для своей семьи Гарри Таскер — любящий муж и отец, человек скромный и рассеянный, обыкновенный продавец компьютеров, «не вылезающий» с работы ни днем, ни ночью. Но лишь немногие знают, что на самом деле Гарри — специальный агент тайной правительственной службы, специализирующийся на особо опасных заданиях, владеющий кучей языков, всеми видами оружия и всеми возможными способами «отправки» злодеев на тот свет. Агент Таскер и дальше продолжал бы вести двойную жизнь, если бы зловещие арабские террористы не похитили Гарри, а вместе с ним и его ничего не подозревающую жену Хэлен. Но бандиты, к своему несчастью, даже не подозревали с кем связались. И Хэлен узнала, что муж ее совсем не компьютерщик, и что она пятнадцать лет прожила с человеком, рядом с которым мускулистый Рэмбо выглядит ребенком…

Страна: США
Студия: Twentieth Century Fox Film Corporation, Lightstorm Entertainment
Продолжительность: 02:20:48
Перевод: Дублированный, Профессиональный (многоголосый,закадровый)
Файл
Кодек: MPEG4 Video (H264)
Качество: WEBRip 1080p | D, P
Видео: 1920x1080, ~11,4 mbps, 23.976fps
Звук:
Аудио 1: AC3, 6 ch, 448 kbps, CBR - (DUB)
Аудио 2: AC3, 6 ch, 448 kbps, CBR - (MVO-R5 "Lizard Cinema Trade")
Аудио 3: AC3, 6 ch, 448 kbps, CBR - (MVO-Супербит/Киномания)
Аудио 4: AC3, 6 ch, 448 kbps, CBR - (MVO-НТВ+)
Аудио 5: AC3, 6 ch, 448 kbps, CBR - Английский
Субтитры: Русские (R5 полные, SDH), английские (полные, SDH)
Семпл

Mediainfo

Общее
Уникальный идентификатор : 240361194101177666089508576451743196087 (0xB4D3E1D289DD52F5944580C3524C23B7)
Полное имя : True Lies.1994.WEBRip.1080p.mkv
Формат : Matroska
Версия формата : Version 2
Размер файла : 13,7 Гбайт
Продолжительность : 2 ч. 21 м.
Общий поток : 13,9 Мбит/сек
Название фильма : True Lies.1994.WEBRip.1080p
Дата кодирования : UTC 2016-10-15 13:33:24
Программа кодирования : mkvmerge v4.0.0 ('The Stars were mine') сборка от Jun 6 2010 16:18:42
Библиотека кодирования : libebml v1.0.0 + libmatroska v1.0.0
Видео
Идентификатор : 1
Формат : AVC
Формат/Информация : Advanced Video Codec
Профиль формата : High@L4
Параметр CABAC формата : Да
Параметр ReFrames формата : 4 кадра
Идентификатор кодека : V_MPEG4/ISO/AVC
Продолжительность : 2 ч. 21 м.
Битрейт : 11,4 Мбит/сек
Ширина : 1920 пикселей
Высота : 1080 пикселей
Соотношение сторон : 16:9
Режим частоты кадров : Постоянный
Частота кадров : 23,976 (23976/1000) кадра/сек
Цветовое пространство : YUV
Субдискретизация насыщенности : 4:2:0
Битовая глубина : 8 бит
Тип развёртки : Прогрессивная
Бит/(Пиксели*Кадры) : 0.229
Размер потока : 11,2 Гбайт (82%)
Заголовок : -=walledol=-
Библиотека кодирования : x264 core 148 r2721 72d53ab
Настройки программы : cabac=1 / ref=4 / deblock=1:-1:-1 / analyse=0x3:0x133 / me=umh / subme=9 / psy=1 / psy_rd=1.00:0.15 / mixed_ref=1 / me_range=24 / chroma_me=1 / trellis=2 / 8x8dct=1 / cqm=0 / deadzone=21,11 / fast_pskip=1 / chroma_qp_offset=-3 / threads=6 / lookahead_threads=1 / sliced_threads=0 / nr=0 / decimate=1 / interlaced=0 / bluray_compat=0 / constrained_intra=0 / bframes=8 / b_pyramid=2 / b_adapt=2 / b_bias=0 / direct=1 / weightb=1 / open_gop=0 / weightp=2 / keyint=120 / keyint_min=61 / scenecut=40 / intra_refresh=0 / rc_lookahead=60 / rc=crf / mbtree=1 / crf=18.0 / qcomp=0.60 / qpmin=0 / qpmax=69 / qpstep=4 / ip_ratio=1.40 / aq=3:1.00
Язык : English
Default : Нет
Forced : Нет
Аудио #1
Идентификатор : 2
Формат : AC-3
Формат/Информация : Audio Coding 3
Расширение режима : CM (complete main)
Параметр Endianness формата : Big
Идентификатор кодека : A_AC3
Продолжительность : 2 ч. 21 м.
Вид битрейта : Постоянный
Битрейт : 448 Кбит/сек
Каналы : 6 каналов
Расположение каналов : Front: L C R, Side: L R, LFE
Частота : 48,0 КГц
Частота кадров : 31,250 кадров/сек (1536 spf)
Метод сжатия : С потерями
Размер потока : 453 Мбайт (3%)
Заголовок : DUB
Язык : Russian
Default : Да
Forced : Да
Аудио #2
Идентификатор : 3
Формат : AC-3
Формат/Информация : Audio Coding 3
Расширение режима : CM (complete main)
Параметр Endianness формата : Big
Идентификатор кодека : A_AC3
Продолжительность : 2 ч. 21 м.
Вид битрейта : Постоянный
Битрейт : 448 Кбит/сек
Каналы : 6 каналов
Расположение каналов : Front: L C R, Side: L R, LFE
Частота : 48,0 КГц
Частота кадров : 31,250 кадров/сек (1536 spf)
Метод сжатия : С потерями
Размер потока : 453 Мбайт (3%)
Заголовок : R5
Язык : Russian
Default : Нет
Forced : Нет
Аудио #3
Идентификатор : 4
Формат : AC-3
Формат/Информация : Audio Coding 3
Расширение режима : CM (complete main)
Параметр Endianness формата : Big
Идентификатор кодека : A_AC3
Продолжительность : 2 ч. 21 м.
Вид битрейта : Постоянный
Битрейт : 448 Кбит/сек
Каналы : 6 каналов
Расположение каналов : Front: L C R, Side: L R, LFE
Частота : 48,0 КГц
Частота кадров : 31,250 кадров/сек (1536 spf)
Метод сжатия : С потерями
Размер потока : 453 Мбайт (3%)
Заголовок : Kinomania
Язык : Russian
Default : Нет
Forced : Нет
Аудио #4
Идентификатор : 5
Формат : AC-3
Формат/Информация : Audio Coding 3
Расширение режима : CM (complete main)
Параметр Endianness формата : Big
Идентификатор кодека : A_AC3
Продолжительность : 2 ч. 21 м.
Вид битрейта : Постоянный
Битрейт : 448 Кбит/сек
Каналы : 6 каналов
Расположение каналов : Front: L C R, Side: L R, LFE
Частота : 48,0 КГц
Частота кадров : 31,250 кадров/сек (1536 spf)
Метод сжатия : С потерями
Размер потока : 453 Мбайт (3%)
Заголовок : HTB+
Язык : Russian
Default : Нет
Forced : Нет
Аудио #5
Идентификатор : 6
Формат : AC-3
Формат/Информация : Audio Coding 3
Расширение режима : CM (complete main)
Параметр Endianness формата : Big
Идентификатор кодека : A_AC3
Продолжительность : 2 ч. 21 м.
Вид битрейта : Постоянный
Битрейт : 448 Кбит/сек
Каналы : 6 каналов
Расположение каналов : Front: L C R, Side: L R, LFE
Частота : 48,0 КГц
Частота кадров : 31,250 кадров/сек (1536 spf)
Метод сжатия : С потерями
Задержка видео : 24 мс.
Размер потока : 453 Мбайт (3%)
Язык : English
Default : Нет
Forced : Нет
Текст #1
Идентификатор : 7
Формат : UTF-8
Идентификатор кодека : S_TEXT/UTF8
Идентификатор кодека/Информация : UTF-8 Plain Text
Заголовок : Full R5
Язык : Russian
Default : Нет
Forced : Нет
Текст #2
Идентификатор : 8
Формат : UTF-8
Идентификатор кодека : S_TEXT/UTF8
Идентификатор кодека/Информация : UTF-8 Plain Text
Заголовок : SDH
Язык : Russian
Default : Нет
Forced : Нет
Текст #3
Идентификатор : 9
Формат : UTF-8
Идентификатор кодека : S_TEXT/UTF8
Идентификатор кодека/Информация : UTF-8 Plain Text
Заголовок : Full
Язык : English
Default : Нет
Forced : Нет
Текст #4
Идентификатор : 10
Формат : UTF-8
Идентификатор кодека : S_TEXT/UTF8
Идентификатор кодека/Информация : UTF-8 Plain Text
Заголовок : SDH
Язык : English
Default : Нет
Forced : Нет
Меню
00:00:00.000 : en:Main Titles
00:01:12.047 : en:Lake Chapeau
00:09:02.150 : en:Tango
00:11:23.358 : en:Here's My Invitation
00:14:30.177 : en:That's It for Mr. Renquist
00:16:18.918 : en:The Tasker Family
00:19:00.280 : en:Not Just a River in Egypt
00:20:27.434 : en:Omega Sector/You Know Harry
00:23:31.617 : en:The Renquist Front
00:27:11.970 : en:The Problem with Terrorists
00:29:36.915 : en:Bathroom Fight
00:32:03.695 : en:My Horse Is Getting Tired
00:40:49.320 : en:A Great Birthday
00:42:39.897 : en:Welcom to the Club
00:45:53.357 : en:A Little Excitement
00:50:08.679 : en:Simon's "Op"
00:52:40.364 : en:One Born Every Minute
00:56:45.709 : en:Seek Help, Harry
00:58:52.836 : en:A Misappropriation of Sector Resources
01:00:22.159 : en:Safe House
01:05:03.139 : en:Helen Looking in the Glass
01:13:16.198 : en:The End of Carlos the Jackal
01:15:10.813 : en:An Envelope Marked Doris
01:19:12.454 : en:The Suite at the Marquis
01:27:12.534 : en:Tasker, Not Renquist
01:29:01.676 : en:The Four Horsemen
01:35:03.838 : en:Truth Agent
01:40:24.325 : en:I Married Rambo
01:42:18.572 : en:Uh-Oh
01:44:24.198 : en:Just Us
01:50:23.190 : en:I Thought This Looked Like Your Work
01:51:28.522 : en:Bright Boy Alert
01:53:53.900 : en:Time to Kick Ass
01:55:16.817 : en:Limo Rescue
01:59:44.117 : en:Nuclear Kiss
02:01:04.097 : en:Borrowing a Harrier
02:03:27.807 : en:Dana the Hostage/a Man Inside
02:04:42.982 : en:Who's Taken the Key?
02:06:35.428 : en:On the Crane
02:07:29.048 : en:A Crimson Jihad
02:08:13.092 : en:Dad?!
02:11:19.645 : en:Fired
02:14:05.477 : en:Boris and Doris
02:16:46.872 : en:End Titles

Скриншоты

[Профиль] [ЛС]
Кто просматривает тему:

Форум Тема Автор Размер
National Geographic NG: Вся правда о ледяном человеке / Iceman Autopsy (Дэвид Мердок) [2011 г., Документальный, научно-познавательный, исследование, HDTVRip 720p] skorpionN 1.5 GB
История, биографии, религия и искусство Аксёнов Дмитрий - Предсказания будущего. Шокирующая правда от Лукьяненко, Леви, Капицы и других [Телегина Татьяна, 2015] Magnat 399 MB
Фильмы 2001-2005 года Антимонополия / Опасная правда / Antitrust (Питер Хауит / Peter Howitt) [2001 г., триллер, драма, криминал, HDTVRip] 2 * MVO + original + subs sergej644 2.18 GB
R.G.TorrentFilm Video Битва за сверхзвук. Правда о Ту-144 (Алексей Поляков) [2005 г., Исторический, авиация, SATRip] Один 777 507 MB
Разная литература Васильченко А. - Тибетская экспедиция СС. Правда о тайном немецком проекте (Военные тайны XX века) [2009, DjVu/PDF, RUS] Garik014 43 MB
Фильмы (HD Rips | 720p, 1080p) Голая правда / The Ugly Truth (2009) BDRip 1080p sergej644 7.76 GB
Фильмы (HD DVD, Blu-ray и BDRemux) Голая правда / The Ugly Truth (Роберт Лукетич) [2009 г., Комедия, мелодрама. Blu-Ray] Magnat 36.49 GB
R.G.TorrentFilm Video Зерно правды / Ziarno prawdy (Борис Ланкош / Borys Lankosz) [2015 г., Триллер, криминал, DVDRip] DVO (Den904 & DeadSno) Один 777 744 MB
Показать сообщения:    

Текущее время: Сегодня 20:59

Часовой пояс: GMT



Вы не можете начинать темы
Вы не можете отвечать на сообщения
Вы не можете редактировать свои сообщения
Вы не можете удалять свои сообщения
Вы не можете голосовать в опросах
Вы не можете прикреплять файлы к сообщениям
Вы не можете скачивать файлы