Правдивая ложь / True Lies (1994) DTheaterRip 720p | D, P, A

 
Автор Сообщение

sergej644 ®

Пол:

Стаж: 4 года 11 месяцев

Сообщений: 6046

Откуда: Soviet Union



Награды: Нет

Торрент-статистика

Создавать темы 30-Янв-2015 23:30

[Цитировать]

Название: Правдивая ложь
Оригинальное название: True Lies
Год выпуска: 1994
Жанр: Боевик, триллер
Выпущено: США, 20th Century Fox Film Corporation, Lightstorm Entertainment
Режиссер: Джеймс Кэмерон
В ролях: Арнольд Шварценеггер, Джейми Ли Кёртис, Том Арнольд, Билл Пэкстон, Тиа Каррере, Арт Малик, Элиза Душку, Грант Хеслов, Чарлтон Хестон, Маршалл Манеш, Джеймс Аллен, Дитер Раутер, Джейн Моррис, Кэтси Чаппель, Кристина Уайлер, Офер Самра, Пол Барселу, Чарльз А. Тамбурро, Жан-Клод Парашини, Узи Гал, Маджед Ибрахим, Армен Ксаджикян, Майк Акрави, Майк Кэмерон, Чарльз Крэгин, Луай Мардини, Джино Сальвано, Скотт Дотсон, Том Исбелл, Джон Бруно, Такао Комине
О фильме: Для своей семьи Гарри Таскер — любящий муж и отец, человек скромный и рассеянный, обыкновенный продавец компьютеров, «не вылезающий» с работы ни днём, ни ночью. Но лишь немногие знают, что на самом деле Гарри — специальный агент тайной правительственной службы, специализирующийся на особо опасных заданиях, владеющий кучей языков, всеми видами оружия и всеми возможными способами «отправки» злодеев на тот свет. Агент Таскер и дальше продолжал бы вести двойную жизнь, если бы зловещие арабские террористы не похитили Гарри, а вместе с ним и его ничего не подозревающую жену Хэлен. Но бандиты, к своему несчастью, даже не подозревали с кем связались. И Хэлен узнала, что муж её совсем не компьютерщик, и что она пятнадцать лет прожила с человеком, рядом с которым мускулистый Рэмбо выглядит ребёнком…
Качество: D-TheaterRip 720p
Размер: 10.58 ГБ
Продолжительность: 02:21:58
Видео: MPEG-4 AVC, 4628 Kбит/с, 1280x548
Аудио 1: русский, 48 kHz, AC3, 6 ch, 448 kbps avg, [Дублированный]
Аудио 2: русский, 48 kHz, AC3, 6 ch, 448 kbps avg, [Профессиональный многоголосый, R5, Lizard Cinema Trade]
Аудио 3: русский, 48 kHz, AC3, 6 ch, 448 kbps avg, [Профессиональный многоголосый, НТВ+]
Аудио 4: русский, 48 kHz, AC3, 2 ch, 192 kbps avg, [Профессиональный многоголосый, Премьер Видео]
Аудио 5: русский, 48 kHz, AC3, 6 ch, 448 kbps avg, [Профессиональный многоголосый, Супербит/Киномания]
Аудио 6: русский, 48 kHz, AC3, 6 ch, 448 kbps avg, [Авторский, Андрей Гаврилов]
Внешние файлы
Аудио: русский, 48 kHz, DTS, 6 ch, 755 kbps avg, [Профессиональный многоголосый, R5, Lizard Cinema Trade]
Аудио: русский, 48 kHz, DTS, 6 ch, 755 kbps avg, [Профессиональный многоголосый, Супербит/Киномания]
Аудио: русский, 48 kHz, DTS, 6 ch, 1510 kbps avg, [Авторский, Андрей Гаврилов]
Аудио: английский, 48 kHz, AC3, 6 ch, 448 kbps avg, [Оригинал]
Субтитры: русские (R5)
Субтитры: русские (Киномания, для слабослышащих)
Субтитры: английские
Имеются поименованные главы/чаптеры.

Награды

Оскар, 1995 год
Номинации (1):
Лучшие визуальные эффекты
Золотой глобус, 1995 год
Победитель (1):
Лучшая женская роль (комедия или мюзикл) (Джейми Ли Кёртис)
Премия канала «MTV», 1995 год
Номинации (5):
Лучшая женская роль (Джейми Ли Кёртис)
Лучшая комедийная роль (Том Арнольд)
Лучший танец (Тиа Каррере, Арнольд Шварценеггер)
Лучшая экшн-сцена
Лучший поцелуй (Джейми Ли Кёртис, Арнольд Шварценеггер)
Британская академия, 1995 год
Номинации (1):
Лучшие визуальные эффекты
Сатурн, 1995 год
Победитель (3):
Лучший режиссер (Джеймс Кэмерон)
Лучшая актриса (Джейми Ли Кёртис)
Лучшие спецэффекты
Номинации (4):
Лучший актер (Арнольд Шварценеггер)
Лучший актер второго плана (Билл Пэкстон)
Лучшая актриса второго плана (Тиа Каррере)
Лучший приключенческий фильм, боевик или триллер
Премия Гильдии актеров, 1995 год
Номинации (1):
Лучшая женская роль второго плана (Джейми Ли Кёртис)

MediaInfo + Лог х264

Общее
Полное имя : D:VideoPravdivaja log.1994.DTheaterRip.720pPravdivaja log.1994.AVO.rus.А.Гаврилов.dts
Формат : DTS
Формат/Информация : Digital Theater Systems
Размер файла : 1,50 Гбайт
Продолжительность : 2 ч. 21 м.
Режим общего битрейта : Постоянный
Общий поток : 1510 Кбит/сек
Аудио
Формат : DTS
Формат/Информация : Digital Theater Systems
Режим : 16
Параметр Endianness формата : Big
Продолжительность : 2 ч. 21 м.
Вид битрейта : Постоянный
Битрейт : 1510 Кбит/сек
Каналы : 6 каналов
Расположение каналов : Front: L C R, Side: L R, LFE
Частота : 48,0 КГц
Битовая глубина : 24 бит
Метод сжатия : С потерями
Размер потока : 1,50 Гбайт
Общее
Уникальный идентификатор : 238097623521113742674892699538242833503 (0xB31FEF2D263F0924AA4FFF9606268C5F)
Полное имя : D:VideoPravdivaja log.1994.DTheaterRip.720pPravdivaja log.1994.DTheaterRip.720p.mkv
Формат : Matroska
Версия формата : Version 4 / Version 2
Размер файла : 7,14 Гбайт
Продолжительность : 2 ч. 21 м.
Общий поток : 7203 Кбит/сек
Дата кодирования : UTC 2014-07-19 13:43:29
Программа кодирования : mkvmerge v6.9.1 ('Blue Panther') 64bit built on Apr 18 2014 18:23:38
Библиотека кодирования : libebml v1.3.0 + libmatroska v1.4.1
Видео
Идентификатор : 1
Формат : AVC
Формат/Информация : Advanced Video Codec
Профиль формата : High@L4.1
Параметр CABAC формата : Да
Параметр ReFrames формата : 9 кадров
Идентификатор кодека : V_MPEG4/ISO/AVC
Продолжительность : 2 ч. 21 м.
Битрейт : 4628 Кбит/сек
Ширина : 1280 пикселей
Высота : 548 пикселей
Соотношение сторон : 2,35:1
Режим частоты кадров : Постоянный
Частота кадров : 23,976 кадра/сек
Цветовое пространство : YUV
Субдискретизация насыщенности : 4:2:0
Битовая глубина : 8 бит
Тип развёртки : Прогрессивная
Бит/(Пиксели*Кадры) : 0.275
Размер потока : 4,59 Гбайт (64%)
Заголовок : BDRip -- STarankov
Библиотека кодирования : x264 core 142 r2431 ac76440
Настройки программы : cabac=1 / ref=9 / deblock=1:-1:-1 / analyse=0x3:0x113 / me=umh / subme=10 / psy=1 / psy_rd=1.00:0.15 / mixed_ref=1 / me_range=32 / chroma_me=1 / trellis=2 / 8x8dct=1 / cqm=0 / deadzone=21,11 / fast_pskip=0 / chroma_qp_offset=-3 / threads=6 / lookahead_threads=1 / sliced_threads=0 / nr=0 / decimate=1 / interlaced=0 / bluray_compat=0 / constrained_intra=0 / bframes=8 / b_pyramid=2 / b_adapt=2 / b_bias=0 / direct=1 / weightb=1 / open_gop=0 / weightp=2 / keyint=230 / keyint_min=23 / scenecut=40 / intra_refresh=0 / rc_lookahead=40 / rc=crf / mbtree=0 / crf=18.5 / qcomp=0.60 / qpmin=0 / qpmax=69 / qpstep=4 / vbv_maxrate=40000 / vbv_bufsize=50000 / crf_max=0.0 / nal_hrd=none / filler=0 / ip_ratio=1.40 / pb_ratio=1.30 / aq=1:1.00
Язык : English
Default : Да
Forced : Нет
Аудио #1
Идентификатор : 2
Формат : AC-3
Формат/Информация : Audio Coding 3
Расширение режима : CM (complete main)
Параметр Endianness формата : Big
Идентификатор кодека : A_AC3
Продолжительность : 2 ч. 21 м.
Вид битрейта : Постоянный
Битрейт : 448 Кбит/сек
Каналы : 6 каналов
Расположение каналов : Front: L C R, Side: L R, LFE
Частота : 48,0 КГц
Битовая глубина : 16 бит
Метод сжатия : С потерями
Размер потока : 455 Мбайт (6%)
Заголовок : DUB
Язык : Russian
Default : Да
Forced : Нет
Аудио #2
Идентификатор : 3
Формат : AC-3
Формат/Информация : Audio Coding 3
Расширение режима : CM (complete main)
Параметр Endianness формата : Big
Идентификатор кодека : A_AC3
Продолжительность : 2 ч. 21 м.
Вид битрейта : Постоянный
Битрейт : 448 Кбит/сек
Каналы : 6 каналов
Расположение каналов : Front: L C R, Side: L R, LFE
Частота : 48,0 КГц
Битовая глубина : 16 бит
Метод сжатия : С потерями
Размер потока : 455 Мбайт (6%)
Заголовок : MVO (R5, Lizard Cinema Trade)
Язык : Russian
Default : Нет
Forced : Нет
Аудио #3
Идентификатор : 4
Формат : AC-3
Формат/Информация : Audio Coding 3
Расширение режима : CM (complete main)
Параметр Endianness формата : Big
Идентификатор кодека : A_AC3
Продолжительность : 2 ч. 21 м.
Вид битрейта : Постоянный
Битрейт : 448 Кбит/сек
Каналы : 6 каналов
Расположение каналов : Front: L C R, Side: L R, LFE
Частота : 48,0 КГц
Битовая глубина : 16 бит
Метод сжатия : С потерями
Размер потока : 455 Мбайт (6%)
Заголовок : MVO (HTB+)
Язык : Russian
Default : Нет
Forced : Нет
Аудио #4
Идентификатор : 5
Формат : AC-3
Формат/Информация : Audio Coding 3
Расширение режима : CM (complete main)
Параметр Endianness формата : Big
Идентификатор кодека : A_AC3
Продолжительность : 2 ч. 21 м.
Вид битрейта : Постоянный
Битрейт : 192 Кбит/сек
Каналы : 2 канала
Расположение каналов : Front: L R
Частота : 48,0 КГц
Битовая глубина : 16 бит
Метод сжатия : С потерями
Размер потока : 195 Мбайт (3%)
Заголовок : MVO (Премьер Видео)
Язык : Russian
Default : Нет
Forced : Нет
Аудио #5
Идентификатор : 6
Формат : AC-3
Формат/Информация : Audio Coding 3
Расширение режима : CM (complete main)
Параметр Endianness формата : Big
Идентификатор кодека : A_AC3
Продолжительность : 2 ч. 21 м.
Вид битрейта : Постоянный
Битрейт : 448 Кбит/сек
Каналы : 6 каналов
Расположение каналов : Front: L C R, Side: L R, LFE
Частота : 48,0 КГц
Битовая глубина : 16 бит
Метод сжатия : С потерями
Размер потока : 455 Мбайт (6%)
Заголовок : MVO (Супербит/Киномания)
Язык : Russian
Default : Нет
Forced : Нет
Аудио #6
Идентификатор : 7
Формат : AC-3
Формат/Информация : Audio Coding 3
Расширение режима : CM (complete main)
Параметр Endianness формата : Big
Идентификатор кодека : A_AC3
Продолжительность : 2 ч. 21 м.
Вид битрейта : Постоянный
Битрейт : 448 Кбит/сек
Каналы : 6 каналов
Расположение каналов : Front: L C R, Side: L R, LFE
Частота : 48,0 КГц
Битовая глубина : 16 бит
Метод сжатия : С потерями
Размер потока : 455 Мбайт (6%)
Заголовок : AVO (Андрей Гаврилов)
Язык : Russian
Default : Нет
Forced : Нет
Меню
00:00:00.000 : en:Main Titles
00:01:54.047 : en:Lake Chapeau
00:09:44.150 : en:Tango
00:12:05.358 : en:Here's My Invitation
00:15:11.177 : en:That's It for Mr. Renquist
00:16:58.918 : en:The Tasker Family
00:19:41.280 : en:Not Just a River in Egypt
00:21:08.434 : en:Omega Sector/You Know Harry
00:24:11.617 : en:The Renquist Front
00:27:51.970 : en:The Problem with Terrorists
00:30:16.915 : en:Bathroom Fight
00:32:43.695 : en:My Horse Is Getting Tired
00:41:29.320 : en:A Great Birthday
00:43:19.897 : en:Welcom to the Club
00:46:33.357 : en:A Little Excitement
00:50:48.679 : en:Simon's "Op"
00:53:20.364 : en:One Born Every Minute
00:57:25.709 : en:Seek Help, Harry
00:59:32.836 : en:A Misappropriation of Sector Resources
01:01:02.159 : en:Safe House
01:05:43.139 : en:Helen Looking in the Glass
01:13:56.198 : en:The End of Carlos the Jackal
01:15:50.813 : en:An Envelope Marked Doris
01:19:52.454 : en:The Suite at the Marquis
01:27:52.534 : en:Tasker, Not Renquist
01:29:41.676 : en:The Four Horsemen
01:35:43.838 : en:Truth Agent
01:41:04.325 : en:I Married Rambo
01:42:58.572 : en:Uh-Oh
01:45:04.198 : en:Just Us
01:51:03.190 : en:I Thought This Looked Like Your Work
01:52:08.522 : en:Bright Boy Alert
01:54:33.900 : en:Time to Kick Ass
01:55:56.817 : en:Limo Rescue
02:00:24.117 : en:Nuclear Kiss
02:01:44.097 : en:Borrowing a Harrier
02:04:07.807 : en:Dana the Hostage/a Man Inside
02:05:22.982 : en:Who's Taken the Key?
02:07:15.428 : en:On the Crane
02:08:09.048 : en:A Crimson Jihad
02:08:53.092 : en:Dad?!
02:11:59.645 : en:Fired
02:14:45.477 : en:Boris and Doris
02:17:26.872 : en:End Titles
Общее
Полное имя : D:VideoPravdivaja log.1994.DTheaterRip.720pPravdivaja log.1994.eng.srt
Формат : SubRip
Размер файла : 121 Кбайт
Текст
Формат : SubRip
Метод сжатия : Без потерь
Общее
Полное имя : D:VideoPravdivaja log.1994.DTheaterRip.720pPravdivaja log.1994.MVO.rus.R5, Lizard Cinema Trade.dts
Формат : DTS
Формат/Информация : Digital Theater Systems
Размер файла : 763 Мбайт
Продолжительность : 2 ч. 21 м.
Режим общего битрейта : Постоянный
Общий поток : 755 Кбит/сек
Аудио
Формат : DTS
Формат/Информация : Digital Theater Systems
Режим : 16
Параметр Endianness формата : Big
Продолжительность : 2 ч. 21 м.
Вид битрейта : Постоянный
Битрейт : 755 Кбит/сек
Каналы : 6 каналов
Расположение каналов : Front: L C R, Side: L R, LFE
Частота : 48,0 КГц
Битовая глубина : 24 бит
Метод сжатия : С потерями
Размер потока : 763 Мбайт (100%)
Общее
Полное имя : D:VideoPravdivaja log.1994.DTheaterRip.720pPravdivaja log.1994.MVO.rus.Супербит и Киномания.dts
Формат : DTS
Формат/Информация : Digital Theater Systems
Размер файла : 766 Мбайт
Продолжительность : 2 ч. 21 м.
Режим общего битрейта : Постоянный
Общий поток : 755 Кбит/сек
Аудио
Формат : DTS
Формат/Информация : Digital Theater Systems
Режим : 16
Параметр Endianness формата : Big
Продолжительность : 2 ч. 21 м.
Вид битрейта : Постоянный
Битрейт : 755 Кбит/сек
Каналы : 6 каналов
Расположение каналов : Front: L C R, Side: L R, LFE
Частота : 48,0 КГц
Битовая глубина : 24 бит
Метод сжатия : С потерями
Размер потока : 766 Мбайт (100%)
Общее
Полное имя : D:VideoPravdivaja log.1994.DTheaterRip.720pPravdivaja log.1994.Original.eng.ac3
Формат : AC-3
Формат/Информация : Audio Coding 3
Размер файла : 455 Мбайт
Продолжительность : 2 ч. 21 м.
Режим общего битрейта : Постоянный
Общий поток : 448 Кбит/сек
Аудио
Формат : AC-3
Формат/Информация : Audio Coding 3
Расширение режима : CM (complete main)
Параметр Endianness формата : Big
Продолжительность : 2 ч. 21 м.
Вид битрейта : Постоянный
Битрейт : 448 Кбит/сек
Каналы : 6 каналов
Расположение каналов : Front: L C R, Side: L R, LFE
Частота : 48,0 КГц
Битовая глубина : 16 бит
Метод сжатия : С потерями
Размер потока : 455 Мбайт (100%)
Общее
Полное имя : D:VideoPravdivaja log.1994.DTheaterRip.720pPravdivaja log.1994.rus.R5.srt
Формат : SubRip
Размер файла : 114 Кбайт
Текст
Формат : SubRip
Метод сжатия : Без потерь
Общее
Полное имя : D:VideoPravdivaja log.1994.DTheaterRip.720pPravdivaja log.1994.rus.SDH.Киномания.srt
Формат : SubRip
Размер файла : 155 Кбайт
Текст
Формат : SubRip
Метод сжатия : Без потерь
---[Information] [19.07.2014 10:20:54] raw [info]: 1280x548p 1:1 @ 24000/1001 fps (cfr)
---[Information] [19.07.2014 10:20:54] x264 [info]: using SAR=1/1
---[Information] [19.07.2014 10:20:54] x264 [info]: using cpu capabilities: MMX2 SSE2Fast SSSE3 SSE4.2
---[Information] [19.07.2014 10:20:54] x264 [info]: profile High, level 4.1
---[Information] [19.07.2014 20:39:08] x264 [info]: frame I:1590 Avg QP:18.02 size: 76436
---[Information] [19.07.2014 20:39:08] x264 [info]: frame P:46148 Avg QP:19.29 size: 41172
---[Information] [19.07.2014 20:39:08] x264 [info]: frame B:156497 Avg QP:21.19 size: 19542
---[Information] [19.07.2014 20:39:08] x264 [info]: consecutive B-frames: 1.9% 2.8% 5.8% 42.9% 11.8% 15.8% 3.4% 14.5% 1.2%
---[Information] [19.07.2014 20:39:08] x264 [info]: mb I I16..4: 5.4% 80.0% 14.6%
---[Information] [19.07.2014 20:39:08] x264 [info]: mb P I16..4: 1.8% 32.2% 3.4% P16..4: 30.7% 22.2% 8.3% 0.0% 0.0% skip: 1.3%
---[Information] [19.07.2014 20:39:08] x264 [info]: mb B I16..4: 0.3% 4.2% 0.4% B16..8: 42.1% 15.5% 3.5% direct:13.2% skip:20.8% L0:42.7% L1:45.5% BI:11.8%
---[Information] [19.07.2014 20:39:08] x264 [info]: 8x8 transform intra:85.5% inter:68.6%
---[Information] [19.07.2014 20:39:08] x264 [info]: coded y,uvDC,uvAC intra: 90.9% 84.0% 58.2% inter: 46.4% 36.4% 4.1%
---[Information] [19.07.2014 20:39:08] x264 [info]: i16 v,h,dc,p: 30% 15% 12% 43%
---[Information] [19.07.2014 20:39:08] x264 [info]: i8 v,h,dc,ddl,ddr,vr,hd,vl,hu: 13% 10% 9% 8% 12% 12% 12% 11% 13%
---[Information] [19.07.2014 20:39:08] x264 [info]: i4 v,h,dc,ddl,ddr,vr,hd,vl,hu: 27% 11% 4% 7% 11% 11% 11% 9% 10%
---[Information] [19.07.2014 20:39:08] x264 [info]: i8c dc,h,v,p: 37% 29% 19% 15%
---[Information] [19.07.2014 20:39:08] x264 [info]: Weighted P-Frames: Y:6.3% UV:3.5%
---[Information] [19.07.2014 20:39:08] x264 [info]: ref P L0: 44.9% 12.2% 17.9% 7.4% 5.5% 4.1% 3.4% 2.2% 2.0% 0.2% 0.0%
---[Information] [19.07.2014 20:39:08] x264 [info]: ref B L0: 75.9% 11.0% 5.3% 2.8% 2.1% 1.6% 0.9% 0.4%
---[Information] [19.07.2014 20:39:08] x264 [info]: ref B L1: 93.7% 6.3%
---[Information] [19.07.2014 20:39:08] x264 [info]: kb/s:4770.69
---[Information] [19.07.2014 20:39:08] encoded 204235 frames, 5.51 fps, 4770.69 kb/s
---[Information] [19.07.2014 20:39:09] avs [info]: AviSynth 2.60, build:May 25 2011 [19:58:41]
---[Information] [19.07.2014 20:39:09] avs [info]: Video colorspace: YV12
---[Information] [19.07.2014 20:39:09] avs [info]: Video resolution: 1280x548
---[Information] [19.07.2014 20:39:09] avs [info]: Video framerate: 24000/1001
---[Information] [19.07.2014 20:39:09] avs [info]: Video framecount: 204235
---[Information] [19.07.2014 20:39:09] avs4x264 [info]: "x264_64" - --level 4.1 --tune film --crf 18.5 --keyint 230 --bframes 8 --b-adapt 2 --ref 9 --vbv-bufsize 50000 --vbv-maxrate 40000 --no-mbtree --merange 32 --me umh --subme 10 --trellis 2 --no-fast-pskip --sar 1:1 --output "D:RipPravdivaja log.1994.D-TheaRipPravdivaja log.1994.D-TheaRip.720p.mkv" --frames 204235 --fps 24000/1001 --input-res 1280x548 --input-csp i420
--[Information] [19.07.2014 20:39:10] Final statistics
---[Information] [19.07.2014 20:39:10] Constant Quality Mode: Quality 18 computed...
---[Information] [19.07.2014 20:39:10] Video Bitrate Obtained (approximate): 4772 kbit/s
--[Information] [19.07.2014 20:39:10] MediaInfo
---[Information] [19.07.2014 20:39:10] File: D:RipPravdivaja log.1994.D-TheaRipPravdivaja log.1994.D-TheaRip.720p.mkvСкрытый текст

Скриншоты

[Профиль] [ЛС]
Кто просматривает тему:

Форум Тема Автор Размер
National Geographic NG: Вся правда о ледяном человеке / Iceman Autopsy (Дэвид Мердок) [2011 г., Документальный, научно-познавательный, исследование, HDTVRip 720p] skorpionN 1.5 GB
История, биографии, религия и искусство Аксёнов Дмитрий - Предсказания будущего. Шокирующая правда от Лукьяненко, Леви, Капицы и других [Телегина Татьяна, 2015] Magnat 399 MB
Фильмы 2001-2005 года Антимонополия / Опасная правда / Antitrust (Питер Хауит / Peter Howitt) [2001 г., триллер, драма, криминал, HDTVRip] 2 * MVO + original + subs sergej644 2.18 GB
R.G.TorrentFilm Video Битва за сверхзвук. Правда о Ту-144 (Алексей Поляков) [2005 г., Исторический, авиация, SATRip] Один 777 507 MB
Разная литература Васильченко А. - Тибетская экспедиция СС. Правда о тайном немецком проекте (Военные тайны XX века) [2009, DjVu/PDF, RUS] Garik014 43 MB
Фильмы (HD Rips | 720p, 1080p) Голая правда / The Ugly Truth (2009) BDRip 1080p sergej644 7.76 GB
Фильмы (HD DVD, Blu-ray и BDRemux) Голая правда / The Ugly Truth (Роберт Лукетич) [2009 г., Комедия, мелодрама. Blu-Ray] Magnat 36.49 GB
R.G.TorrentFilm Video Зерно правды / Ziarno prawdy (Борис Ланкош / Borys Lankosz) [2015 г., Триллер, криминал, DVDRip] DVO (Den904 & DeadSno) Один 777 744 MB
Показать сообщения:    

Текущее время: Сегодня 19:35

Часовой пояс: GMT



Вы не можете начинать темы
Вы не можете отвечать на сообщения
Вы не можете редактировать свои сообщения
Вы не можете удалять свои сообщения
Вы не можете голосовать в опросах
Вы не можете прикреплять файлы к сообщениям
Вы не можете скачивать файлы