Правдивая ложь / True Lies (Джеймс Кэмерон / James Cameron) [1994, США, Комедия, боевик, HDTV 1080i] [Open Matte] MVO (R5)

 
Автор Сообщение

Создавать темы 20-Июл-2014 09:41

Правдивая ложь / True Lies
Страна: США
Жанр: Комедия, боевик
Год выпуска: 1994
Продолжительность: 02:14:57
Перевод: Профессиональный (многоголосый, закадровый) R5 "Lizard Cinema Trade"
Субтитры: нет
Навигация по главам: нет
Оригинальная аудиодорожка: нет
Режиссер: Джеймс Кэмерон / James Cameron
В ролях: Арнольд Шварценеггер, Джейми Ли Кёртис, Том Арнольд, Грант Хеслов, Билл Пэкстон, Тиа Каррере, Арт Малик
Описание: Для своей семьи Гарри Таскер — любящий муж и отец, человек скромный и рассеянный, обыкновенный продавец компьютеров, «не вылезающий» с работы ни днем, ни ночью. Но лишь немногие знают, что на самом деле Гарри — специальный агент тайной правительственной службы, специализирующийся на особо опасных заданиях, владеющий кучей языков, всеми видами оружия и всеми возможными способами «отправки» злодеев на тот свет.
Доп. информация:
Данная версия отличается наполнением кадра http://screenshotcomparison.com/comparison/83765
Сэмпл: https://yadi.sk/i/k7ABvP_nWgoyJ
Качество: HDTV 1080i
Контейнер: TS
Видео: AVC 1920x1080, (1.78:1), 25 fps, 8704 Kbps
Аудио: Rus; AC3 2.0; 192 Kbps; 48 kHz; MVO R5 "Lizard Cinema Trade"

MediaInfo

D:\True Lies 1080i.ts
General #1
ID : 1 (0x1)
Complete name : D:\True Lies 1080i.ts
Format : MPEG-TS
File size : 8.82 GiB
Duration : 2h 14mn
Overall bit rate mode : Variable
Overall bit rate : 9 360 Kbps
Video #303
ID : 303 (0x12F)
Menu ID : 1 (0x1)
Format : AVC
Format/Info : Advanced Video Codec
Format profile : High@L4.0
Format settings, CABAC : Yes
Format settings, ReFrames : 3 frames
Codec ID : 27
Duration : 2h 14mn
Bit rate : 8 704 Kbps
Width : 1 920 pixels
Height : 1 080 pixels
Display aspect ratio : 16:9
Frame rate : 25.000 fps
Standard : Component
Color space : YUV
Chroma subsampling : 4:2:0
Bit depth : 8 bits
Scan type : Interlaced
Scan order : Top Field First
Bits/(Pixel*Frame) : 0.168
Stream size : 8.20 GiB (93%)
Color primaries : BT.709
Transfer characteristics : BT.709
Matrix coefficients : BT.709
Audio #423
ID : 423 (0x1A7)
Menu ID : 1 (0x1)
Format : AC-3
Format/Info : Audio Coding 3
Mode extension : CM (complete main)
Format settings, Endianness : Big
Codec ID : 6
Duration : 2h 14mn
Bit rate mode : Constant
Bit rate : 192 Kbps
Channel count : 2 channels
Channel positions : Front: L R
Sampling rate : 48.0 KHz
Bit depth : 16 bits
Compression mode : Lossy
Stream size : 185 MiB (2%)
Language : Russian

Скриншоты

 
Кто просматривает тему:

Форум Тема Автор Размер
National Geographic NG: Вся правда о ледяном человеке / Iceman Autopsy (Дэвид Мердок) [2011 г., Документальный, научно-познавательный, исследование, HDTVRip 720p] skorpionN 1.5 GB
История, биографии, религия и искусство Аксёнов Дмитрий - Предсказания будущего. Шокирующая правда от Лукьяненко, Леви, Капицы и других [Телегина Татьяна, 2015] Magnat 399 MB
Фильмы 2001-2005 года Антимонополия / Опасная правда / Antitrust (Питер Хауит / Peter Howitt) [2001 г., триллер, драма, криминал, HDTVRip] 2 * MVO + original + subs sergej644 2.18 GB
R.G.TorrentFilm Video Битва за сверхзвук. Правда о Ту-144 (Алексей Поляков) [2005 г., Исторический, авиация, SATRip] Один 777 507 MB
Разная литература Васильченко А. - Тибетская экспедиция СС. Правда о тайном немецком проекте (Военные тайны XX века) [2009, DjVu/PDF, RUS] Garik014 43 MB
Фильмы (HD Rips | 720p, 1080p) Голая правда / The Ugly Truth (2009) BDRip 1080p sergej644 7.76 GB
Фильмы (HD DVD, Blu-ray и BDRemux) Голая правда / The Ugly Truth (Роберт Лукетич) [2009 г., Комедия, мелодрама. Blu-Ray] Magnat 36.49 GB
R.G.TorrentFilm Video Зерно правды / Ziarno prawdy (Борис Ланкош / Borys Lankosz) [2015 г., Триллер, криминал, DVDRip] DVO (Den904 & DeadSno) Один 777 744 MB
Показать сообщения:    

Текущее время: Сегодня 22:32

Часовой пояс: GMT



Вы не можете начинать темы
Вы не можете отвечать на сообщения
Вы не можете редактировать свои сообщения
Вы не можете удалять свои сообщения
Вы не можете голосовать в опросах
Вы не можете прикреплять файлы к сообщениям
Вы не можете скачивать файлы