Правда Правда Ложь / True True Lie (Эрик Стайлз / Eric Styles) [2006, Великобритания, триллер, DVDRip] VO ( ViruseProject )

 
Автор Сообщение

TorrentFilm ®

Пол:

Стаж: 2 года

Сообщений: 7741



Награды: Нет

Торрент-статистика

Создавать темы 19-Дек-2014 02:00

[Цитировать]

Правда Правда Ложь / True True Lie
Страна: Великобритания
Жанр: триллер
Год выпуска: 2006
Продолжительность: 01:26:52
Перевод: Любительский (одноголосый закадровый) ViruseProject
Cубтитры: нет
Оригинальная аудиодорожка: нет
Режиссер: Эрик Стайлз / Eric Styles
В ролях: Джейми Кинг, Лидия Леонард, Джейсон Дурр, Аннабелль Уоллис и др.
Описание: После 12 лет, проведенных в психиатрической лечебнице, Дана наконец-то вернулась к своим подругам Пейдж и Натали. Все годы заточения ее преследовали мрачные видения об убийстве ими в детстве маленького мальчика во время игры «Правда, правда, ложь». И вот после воссоединения они решили сыграть еще раз... Как не сойти с ума окончательно и отличить реальность от вымысла, если никто тебе не верит?


Над релизом трудились:
Озвучка: Роман Коточигов
Перевод: Роман Коточигов
Сведение звука: Виталий Емельянов
скачать СЕМПЛ с multi-up
Качество видео: DVDRip
Формат видео: AVI
Видео: 592x320 (1.85:1), 25 fps, XviD build 46 ~963 kbps avg, 0.20 bit/pixel
Аудио: 48 kHz, MPEG Layer 3, 2 ch, ~192.00 kbps avg

MediaInfo

Format : AVI
Format/Info : Audio Video Interleave
File size : 724 MiB
Duration : 1h 26mn
Overall bit rate : 1 166 Kbps
Writing application : VirtualDubMod 1.5.10.2 (build 2540/release)
Writing library : VirtualDubMod build 2540/release
Video #0
ID : 0
Format : MPEG-4 Visual
Format profile : Advanced Simple@L5
Format settings, BVOP : 2
Format settings, QPel : No
Format settings, GMC : No warppoints
Format settings, Matrix : Default (MPEG)
Codec ID : XVID
Codec ID/Hint : XviD
Duration : 1h 26mn
Bit rate : 964 Kbps
Width : 592 pixels
Height : 320 pixels
Display aspect ratio : 1.850
Frame rate : 25.000 fps
Color space : YUV
Chroma subsampling : 4:2:0
Bit depth : 8 bits
Scan type : Progressive
Compression mode : Lossy
Bits/(Pixel*Frame) : 0.204
Stream size : 599 MiB (83%)
Writing library : XviD 1.1.2 (UTC 2006-11-01)
Audio #1
ID : 1
Format : MPEG Audio
Format version : Version 1
Format profile : Layer 3
Mode : Joint stereo
Mode extension : MS Stereo
Codec ID : 55
Codec ID/Hint : MP3
Duration : 1h 26mn
Bit rate mode : Constant
Bit rate : 192 Kbps
Channel(s) : 2 channels
Sampling rate : 48.0 KHz
Compression mode : Lossy
Stream size : 119 MiB (16%)
Alignment : Aligned on interleaves
Interleave, duration : 40 ms (1.00 video frame)
Interleave, preload duration : 504 ms

Скриншот c названием фильма

Скриншоты

[Профиль] [ЛС]

Создавать темы 06-Авг-2015 22:54 (спустя 7 месяцев 18 дней)

Топик был перенесен из форума Фильмы до 2014 года в форум Фильмы до 2012 года
sergej644
 
Кто просматривает тему:

Форум Тема Автор Размер
National Geographic NG: Вся правда о ледяном человеке / Iceman Autopsy (Дэвид Мердок) [2011 г., Документальный, научно-познавательный, исследование, HDTVRip 720p] skorpionN 1.5 GB
История, биографии, религия и искусство Аксёнов Дмитрий - Предсказания будущего. Шокирующая правда от Лукьяненко, Леви, Капицы и других [Телегина Татьяна, 2015] Magnat 399 MB
Фильмы 2001-2005 года Антимонополия / Опасная правда / Antitrust (Питер Хауит / Peter Howitt) [2001 г., триллер, драма, криминал, HDTVRip] 2 * MVO + original + subs sergej644 2.18 GB
R.G.TorrentFilm Video Битва за сверхзвук. Правда о Ту-144 (Алексей Поляков) [2005 г., Исторический, авиация, SATRip] Один 777 507 MB
Разная литература Васильченко А. - Тибетская экспедиция СС. Правда о тайном немецком проекте (Военные тайны XX века) [2009, DjVu/PDF, RUS] Garik014 43 MB
Фильмы (HD Rips | 720p, 1080p) Голая правда / The Ugly Truth (2009) BDRip 1080p sergej644 7.76 GB
Фильмы (HD DVD, Blu-ray и BDRemux) Голая правда / The Ugly Truth (Роберт Лукетич) [2009 г., Комедия, мелодрама. Blu-Ray] Magnat 36.49 GB
R.G.TorrentFilm Video Зерно правды / Ziarno prawdy (Борис Ланкош / Borys Lankosz) [2015 г., Триллер, криминал, DVDRip] DVO (Den904 & DeadSno) Один 777 744 MB
Показать сообщения:    

Текущее время: Сегодня 02:24

Часовой пояс: GMT



Вы не можете начинать темы
Вы не можете отвечать на сообщения
Вы не можете редактировать свои сообщения
Вы не можете удалять свои сообщения
Вы не можете голосовать в опросах
Вы не можете прикреплять файлы к сообщениям
Вы не можете скачивать файлы