Правда крупным планом (Владимир Гончаров) [1988, мультфильм для взрослых, VHSRip]

 
Автор Сообщение

TorrentFilm ®

Пол:

Стаж: 2 года

Сообщений: 7741



Награды: Нет

Торрент-статистика

Создавать темы 02-Авг-2015 00:09

[Цитировать]

Правда крупным планом
Страна: СССР
Производство: Киевнаучфильм
Жанр: мультфильм для взрослых
Продолжительность: 00:09:41
Год выпуска: 1988
Русские субтитры: нет
Режиссёр: Владимир Гончаров
Описание: Ироничный мультфильм о политическом строе советского союза рассчитан на взрослую аудиторию. Акценты указывают на характерные моменты для периодов правления разных вождей, проводя параллели и с меняющимся обликом народа. Но изображенные обыватели больше всего хотели посмотреть на правду, что они в итоге и получили.
Кинопоиск
Качество: WEBRip
Формат: AVI
Видео: 720x544 (1.32:1), 25 fps, XviD MPEG-4 ~1994 kbps avg, 0.204 bit/pixel
Аудио: 44.1 kHz, MPEG Layer 3, 1 ch, ~128.00 kbps avg
Субтитры: Отсутствуют

Подробные технические данные

GeneralComplete name : E:\1\мультики\Правда крупным планом 1988.aviFormat : AVIFormat/Info : Audio Video InterleaveFile size : 148 MiBDuration : 9mn 41sOverall bit rate : 2 132 KbpsWriting application : VirtualDubMod 1.5.10.3 | www.virtualdub-fr.org || (build 2550/release)Writing library : VirtualDubMod build 2550/release
VideoID : 0Format : MPEG-4 VisualFormat profile : Advanced Simple@L5Format settings, BVOP : 2Format settings, QPel : NoFormat settings, GMC : No warppointsFormat settings, Matrix : Default (H.263)Codec ID : XVIDCodec ID/Hint : XviDDuration : 9mn 41sBit rate : 1 994 KbpsWidth : 720 pixelsHeight : 544 pixelsDisplay aspect ratio : 4:3Frame rate : 25.000 fpsColor space : YUVChroma subsampling : 4:2:0Bit depth : 8 bitsScan type : ProgressiveCompression mode : LossyBits/(Pixel*Frame) : 0.204Stream size : 138 MiB (94%)Writing library : XviD 73
AudioID : 1Format : MPEG AudioFormat version : Version 1Format profile : Layer 3Codec ID : 55Codec ID/Hint : MP3Duration : 9mn 40sBit rate mode : ConstantBit rate : 128 KbpsChannel count : 1 channelSampling rate : 44.1 KHzCompression mode : LossyStream size : 8.87 MiB (6%)Alignment : Split accross interleavesInterleave, duration : 40 ms (1.00 video frame)Interleave, preload duration : 500 msWriting library : LAME3.99rEncoding settings : -m m -V 4 -q 2 -lowpass 20.5 -b 128

Скриншоты

[Профиль] [ЛС]
Кто просматривает тему:

Форум Тема Автор Размер
National Geographic NG: Вся правда о ледяном человеке / Iceman Autopsy (Дэвид Мердок) [2011 г., Документальный, научно-познавательный, исследование, HDTVRip 720p] skorpionN 1.5 GB
История, биографии, религия и искусство Аксёнов Дмитрий - Предсказания будущего. Шокирующая правда от Лукьяненко, Леви, Капицы и других [Телегина Татьяна, 2015] Magnat 399 MB
Фильмы 2001-2005 года Антимонополия / Опасная правда / Antitrust (Питер Хауит / Peter Howitt) [2001 г., триллер, драма, криминал, HDTVRip] 2 * MVO + original + subs sergej644 2.18 GB
R.G.TorrentFilm Video Битва за сверхзвук. Правда о Ту-144 (Алексей Поляков) [2005 г., Исторический, авиация, SATRip] Один 777 507 MB
Разная литература Васильченко А. - Тибетская экспедиция СС. Правда о тайном немецком проекте (Военные тайны XX века) [2009, DjVu/PDF, RUS] Garik014 43 MB
Фильмы (HD Rips | 720p, 1080p) Голая правда / The Ugly Truth (2009) BDRip 1080p sergej644 7.76 GB
Фильмы (HD DVD, Blu-ray и BDRemux) Голая правда / The Ugly Truth (Роберт Лукетич) [2009 г., Комедия, мелодрама. Blu-Ray] Magnat 36.49 GB
R.G.TorrentFilm Video Зерно правды / Ziarno prawdy (Борис Ланкош / Borys Lankosz) [2015 г., Триллер, криминал, DVDRip] DVO (Den904 & DeadSno) Один 777 744 MB
Показать сообщения:    

Текущее время: Сегодня 04:22

Часовой пояс: GMT



Вы не можете начинать темы
Вы не можете отвечать на сообщения
Вы не можете редактировать свои сообщения
Вы не можете удалять свои сообщения
Вы не можете голосовать в опросах
Вы не можете прикреплять файлы к сообщениям
Вы не можете скачивать файлы