По щучьему веленью (1938) DVDRip-AVC

 
Автор Сообщение

sergej644 ®

Пол:

Стаж: 4 года 11 месяцев

Сообщений: 6035

Откуда: Soviet Union



Награды: Нет

Торрент-статистика

Создавать темы 06-Дек-2014 15:20

[Цитировать]

Информация о фильме
Название: По щучьему веленью
Год выхода: 1938
Жанр: Сказка, приключения
Режиссер: Александр Роу
В ролях: Пётр Савин, Георгий Милляр, Александр Жуков, Андрей Файт, Иван Москвин, Владимир Лепко, Лидия Рюмина, Мария Кравчуновская, Лев Потёмкин, Татьяна Струкова
О фильме:
Великолепный детский фильм, поставленный по одноименной пьесе Е. Тараховской, в основе сюжета которой четыре русские народные сказки: "По щучьему велению", "Царевна Несмеяна", "Плясовая гармонь", "Емеля-дурачок". В этом фильме сыграл свою первую роль в кино Георгий Милляр, "заслуженная Баба-Яга Советского Союза".

Страна: СССР
Студия: Союздетфильм
Продолжительность: 00:56:12
Файл
Кодек: H,264
Качество: DVDRip
Видео: MPEG4 Video (H264), 672x576, 25 fps, 3287 Kbps
Аудио: AC3, 48000 Hz, 2 ch, 192 Kbps
Субтитры: Русские, английские

MI

General
Unique ID : 253190906702093596802434336778317123223 (0xBE7ACB7DAD0642F2BC7BDF168942CE97)
Complete name : C:UsersпкDesktopПо щучьему веленью (1938).mkv
Format : Matroska
Format version : Version 4 / Version 2
File size : 1.37 GiB
Duration : 56mn 12s
Overall bit rate : 3 481 Kbps
Encoded date : UTC 2014-07-24 13:46:40
Writing application : mkvmerge v7.0.0 ('Where We Going') 64bit built on Jun 9 2014 15:16:27
Writing library : libebml v1.3.0 + libmatroska v1.4.1
DURATION : 00:51:55.906000000
NUMBER_OF_FRAMES : 314
NUMBER_OF_BYTES : 17096
_STATISTICS_WRITING_APP : mkvmerge v7.0.0 ('Where We Going') 64bit built on Jun 9 2014 15:16:27
_STATISTICS_WRITING_DATE_UTC : 2014-07-24 13:46:40
_STATISTICS_TAGS : BPS DURATION NUMBER_OF_FRAMES NUMBER_OF_BYTES
Video
ID : 1
Format : AVC
Format/Info : Advanced Video Codec
Format profile : Main@L3.0
Format settings, CABAC : Yes
Format settings, ReFrames : 4 frames
Codec ID : V_MPEG4/ISO/AVC
Duration : 56mn 12s
Bit rate : 3 287 Kbps
Width : 672 pixels
Height : 576 pixels
Display aspect ratio : 1.281
Frame rate mode : Constant
Frame rate : 25.000 fps
Color space : YUV
Chroma subsampling : 4:2:0
Bit depth : 8 bits
Scan type : Progressive
Bits/(Pixel*Frame) : 0.340
Stream size : 1.26 GiB (92%)
Writing library : x264 core 112
Encoding settings : cabac=1 / ref=2 / deblock=1:0:0 / analyse=0x1:0x111 / me=hex / subme=6 / psy=1 / psy_rd=1.00:0.00 / mixed_ref=0 / me_range=16 / chroma_me=1 / trellis=0 / 8x8dct=0 / cqm=0 / deadzone=21,11 / fast_pskip=1 / chroma_qp_offset=-2 / threads=6 / sliced_threads=0 / nr=0 / decimate=1 / interlaced=0 / constrained_intra=0 / bframes=2 / b_pyramid=2 / b_adapt=1 / b_bias=0 / direct=1 / weightb=0 / open_gop=0 / weightp=2 / keyint=250 / keyint_min=25 / scenecut=40 / intra_refresh=0 / rc_lookahead=40 / rc=2pass / mbtree=1 / bitrate=3287 / ratetol=1.0 / qcomp=0.60 / qpmin=3 / qpmax=51 / qpstep=4 / cplxblur=20.0 / qblur=0.5 / ip_ratio=1.40 / aq=1:1.00
Language : English
Default : Yes
Forced : No
Color primaries : BT.601 NTSC
Transfer characteristics : BT.709
Matrix coefficients : BT.601
Audio
ID : 2
Format : AC-3
Format/Info : Audio Coding 3
Mode extension : CM (complete main)
Format settings, Endianness : Big
Codec ID : A_AC3
Duration : 56mn 12s
Bit rate mode : Constant
Bit rate : 192 Kbps
Channel(s) : 2 channels
Channel positions : Front: L R
Sampling rate : 48.0 KHz
Bit depth : 16 bits
Compression mode : Lossy
Stream size : 77.2 MiB (6%)
Language : Russian
Default : Yes
Forced : No
Text #1
ID : 3
Format : UTF-8
Codec ID : S_TEXT/UTF8
Codec ID/Info : UTF-8 Plain Text
Language : Russian
Default : No
Forced : No
Text #2
ID : 4
Format : UTF-8
Codec ID : S_TEXT/UTF8
Codec ID/Info : UTF-8 Plain Text
Language : English
Default : No
Forced : No
Menu
00:00:00.000 : en:Chapter 1
00:05:52.160 : en:Chapter 2
00:11:00.440 : en:Chapter 3
00:16:12.360 : en:Chapter 4
00:20:14.360 : en:Chapter 5
00:24:29.320 : en:Chapter 6
00:29:31.120 : en:Chapter 7
00:34:31.600 : en:Chapter 8
00:38:33.400 : en:Chapter 9
00:43:08.760 : en:Chapter 10
00:48:24.840 : en:Chapter 11
00:52:14.840 : en:Chapter 12

Скриншоты

[Профиль] [ЛС]
Кто просматривает тему:

Показать сообщения:    

Текущее время: Сегодня 09:53

Часовой пояс: GMT



Вы не можете начинать темы
Вы не можете отвечать на сообщения
Вы не можете редактировать свои сообщения
Вы не можете удалять свои сообщения
Вы не можете голосовать в опросах
Вы не можете прикреплять файлы к сообщениям
Вы не можете скачивать файлы