По следам морских сражений (Сезон 2, 1-5 серия из 5) / Deep Wreck Mysteries (Криспин Сэдлер) [2009, Документально-постановочный, познавательный, истор, HDTVRip 720p]

 
Автор Сообщение

TorrentFilm ®

Пол:

Стаж: 2 года

Сообщений: 7741



Награды: Нет

Торрент-статистика

Создавать темы 31-Дек-2014 00:00

[Цитировать]

По следам морских сражений / Deep Wreck Mysteries
Год выпуска: 2009
Страна: США, Канада
Студия: Deep Sea Productions, Mallinson Sadler Productions, Northern Sky
Жанр: Документально-постановочный, познавательный, истор
Продолжительность: 5 х ~ 00:50:00
Перевод: Одноголосый закадровый
Режиссер: Криспин Сэдлер
Описание: В толще мирового океана хранится немало секретов. Уникальные подводные артефакты приоткрывают завесу тайн. Исследователи и детективы-подводники по крупицам собирают информацию и воссоздают картину проишествий. Путешествие в глубины истории в документальном цикле "По следам морских сражений"
Видео: MPEG-4 AVC, 5100 Кбит/с, 1280x720
Аудио: AC3, 6 ch, 448 Кбит/с
Сэмпл: Скачать
Тип релиза: HDTVRip 720p
Контейнер: MKV

Содержание серий:

1. Субмарина - невидимка
Август 1944 года 4 корабля союзников потоплены у берегов Южной Англии. Выжившие понятия не имеют кто их потопил. Через полстолетия неподалёку в море нашли субмарину эпохи Второй мировой. Её конструкция не похожа ни на одну другую из найденных прежде. Используя передовое оборудование команда детективов-подводников раскрывает историю героизма и изобретательности ...
2. Кости на дне
Июнь 1915 года пароход ... направляется в Англию он идёт из США и везёт живой груз около 1600 мулов на поля сражений в Европу. Немецкая пододка топит судно погубив команду, погонщиков мулов и их беспомощных животных ...
3. Встречный курс
В разгар второй мировой войны, знаменитый океанский лайнер мира протаранил британский военный корабль из собственного эскорта...
4. Катастрофа Леопольдвилля
Не подалёку от побережья Франции лежит затонувший транспорт союзников. Здесь погибли почти 800 американских солдат. Их смерть окружена завесой секретности и тайны. Новые расследования открывают ужасные подробности этой трагедии ...
5. Гибель линкора
У северного побережья Ирландии никому не заметные лежат обломки крупного корабля. Здесь слишком глубоко и опасно для обычного погружения и обломки остались не обследованными. Лишь последние несколько лет водолазы смогли добраться до корабля. Они обнаружили Британский военный корабль "Смелый" ...

MediaInfo

GeneralUnique ID : 230731876945314402331156086212471390557 (0xAD9557D4F77EF8A5B4E85A63383D815D)Complete name : M:\Торренты\Документальные\По следам морских сражений\3 Collision Course . Встречный курс_720p.mkvFormat : MatroskaFormat version : Version 4 / Version 2File size : 2.01 GiBDuration : 51mn 54sOverall bit rate : 5 550 KbpsEncoded date : UTC 2014-12-21 10:40:35Writing application : mkvmerge v6.6.0 ('The Edge Of The In Between') built on Dec 1 2013 17:55:00Writing library : libebml v1.3.0 + libmatroska v1.4.1
VideoID : 1Format : AVCFormat/Info : Advanced Video CodecFormat profile : High@L4.1Format settings, CABAC : YesFormat settings, ReFrames : 9 framesCodec ID : V_MPEG4/ISO/AVCDuration : 51mn 54sBit rate : 5 100 KbpsWidth : 1 280 pixelsHeight : 720 pixelsDisplay aspect ratio : 16:9Frame rate mode : ConstantFrame rate : 25.000 fpsColor space : YUVChroma subsampling : 4:2:0Bit depth : 8 bitsScan type : ProgressiveBits/(Pixel*Frame) : 0.221Stream size : 1.81 GiB (90%)Writing library : x264 core 142 r2431 ac76440Encoding settings : cabac=1 / ref=9 / deblock=1:0:0 / analyse=0x3:0x133 / me=umh / subme=9 / psy=1 / psy_rd=1.00:0.10 / mixed_ref=1 / me_range=32 / chroma_me=1 / trellis=2 / 8x8dct=1 / cqm=0 / deadzone=21,11 / fast_pskip=1 / chroma_qp_offset=-3 / threads=6 / lookahead_threads=1 / sliced_threads=0 / nr=0 / decimate=0 / interlaced=0 / bluray_compat=0 / constrained_intra=0 / bframes=12 / b_pyramid=2 / b_adapt=2 / b_bias=0 / direct=3 / weightb=1 / open_gop=0 / weightp=2 / keyint=250 / keyint_min=23 / scenecut=40 / intra_refresh=0 / rc=2pass / mbtree=0 / bitrate=5100 / ratetol=1.0 / qcomp=0.60/ qpmin=0 / qpmax=69 / qpstep=4 / cplxblur=20.0 / qblur=0.5 / ip_ratio=1.40 / pb_ratio=1.30 / aq=1:1.00Language : EnglishDefault : YesForced : No
AudioID : 2Format : AC-3Format/Info : Audio Coding 3Mode extension : CM (complete main)Format settings, Endianness : BigCodec ID : A_AC3Duration : 51mn 54sBit rate mode : ConstantBit rate : 448 KbpsChannel(s) : 6 channelsChannel positions : Front: L C R, Side: L R, LFESampling rate : 48.0 KHzBit depth : 16 bitsCompression mode : LossyDelay relative to video : 89msStream size : 166 MiB (8%)Language : RussianDefault : YesForced : No

Скриншоты

Дополнительные скриншоты:

[Профиль] [ЛС]
Кто просматривает тему:

Показать сообщения:    

Текущее время: Сегодня 18:35

Часовой пояс: GMT



Вы не можете начинать темы
Вы не можете отвечать на сообщения
Вы не можете редактировать свои сообщения
Вы не можете удалять свои сообщения
Вы не можете голосовать в опросах
Вы не можете прикреплять файлы к сообщениям
Вы не можете скачивать файлы