По следам великих русских путешественников. Харитон Лаптев (2014) HDTVRip [H.264/720p]

 
Автор Сообщение

KottoSoft ®

Стаж: 2 года

Сообщений: 119



Награды: Нет

Торрент-статистика

Создавать темы 23-Дек-2014 23:32

[Цитировать]

-По следам великих русских путешественников. Харитон Лаптев (2014) HDTVRip [H.264/720p] Режиссер / Телекомпания: Сергей Браверман / Первый канал HD
Страна: Россия
Год выпуска: 2014
Жанр: Документальный, познавательный, история
Описание: Почему все-таки аборигены съели Кука? Автор нового цикла "По следам великих русских путешественников" Леонид Круглов так и не нашел ответ на этот вопрос, но зато нашел в глухих джунглях острова Новая Гвинея современных аборигенов.
Пик открытий, совершенных российскими путешественниками, пришелся на XIX век. Александр Булатович, Николай Пржевальский, Николай Миклухо-Маклай, Афанасий Никитин, Харитон Лаптев, Иван Крузенштерн и Юрий Лисянский - это были русские путешественники, совершившие открытия мирового значения, но самое главное открытие предстоит совершить нам – вместе с ведущим Леонидом Кругловым.
Харитон Лаптев:
Тогда в России точно не знали, где конкретно на севере заканчивается территория государства российского. Харитон Лаптев первым из русских отважился пойти туда, где теперь, как мы знаем, находится самая северная точка Евразии...
Живые люди сюда никогда не доходят. По поверьям местного народа нганасан здесь находится, как они говорят, нечеловеческая земля. Сюда могут добраться только шаманы...Леонид давно искал встречи с потомком рода Великих Шаманов Нгамтусоо. После знакомства с третьим и последним шаманом рода в 1994 году тот даже ему разрешает Круглову звать его Леней. У шамана Лени Костеркина хранится знаменитая корона его предков-шаманов, упоминание о которой можно найти в документах XVIII века, времени экспедиции Харитона Лаптева. Эту корону Леня тщательно хранит и не соглашается расстаться с ней ни за какие деньги. Он верит, что еще войдет в шаманскую силу, как это делали его предки...И проводит время от времени обряды...
Его предков-шаманов называли сеймедами - провидцами. Сейчас у Лени нет полного шаманского костюма, как у его деда и отца, и всех необходимых предметов. Многое попало в музеи или продано частным коллекционерам. И все же он пытается продолжить семейные традиции. Леня тоже хотел бы совершить путешествие в страну мертвых, как это уже сделали его отец и дед... Леонид Круглов тоже готов рискнуть и попытаться дойти туда, до самой северной оконечности полуострова Таймыр.
А начинается это необычное путешествие на месте последней стоянки Лаптева, где был найден сундук со старинными предметами и кольцо с загадочной надписью...
Продолжительность: 00:51:36
Субтитры: отсутствуют
Контейнер: MKV
Видеокодек: MPEG-4 AVC/H.264
Битрейт видео: ~3 500 Kбит/с
Размер кадра: 1280 x 720
Качество видео: HDTVRip [720p]
Aудио: AC3, 2 ch, 192 Кбит/с

MediaInfo

Общее
Уникальный идентификатор : 202058505530206181332365917431867376176 (0x98030D79485947709C4EA926CA640230)
Полное имя : D:\Temp\Video\Po.Sledam.Hariton.Laptev.HDTVRip.720p.mkv
Формат : Matroska
Версия формата : Version 2
Размер файла : 1,32 Гбайт
Продолжительность : 51 м.
Общий поток : 3670 Кбит/сек
Название фильма : Hariton.Laptev.HDTVRip.720p
Дата кодирования : UTC 2014-12-21 11:17:16
Программа кодирования : DVDFab 9.1.6.8
Библиотека кодирования : libebml v0.7.8 + libmatroska v0.8.1
Видео
Идентификатор : 1
Формат : AVC
Формат/Информация : Advanced Video Codec
Профиль формата : [url=mailto:High@L4.1]High@L4.1[/url]
Параметр CABAC формата : Да
Параметр ReFrames формата : 2 кадра
Параметр GOP формата : M=1, N=23
Идентификатор кодека : V_MPEG4/ISO/AVC
Продолжительность : 51 м.
Битрейт : 3456 Кбит/сек
Ширина : 1280 пикселей
Высота : 720 пикселей
Соотношение сторон : 16:9
Режим частоты кадров : Постоянный
Частота кадров : 25,000 кадров/сек
Цветовое пространство : YUV
Субдискретизация насыщенности : 4:2:0
Битовая глубина : 8 бит
Тип развёртки : Прогрессивная
Бит/(Пиксели*Кадры) : 0.150
Размер потока : 1,23 Гбайт (93%)
Библиотека кодирования : x264 core 142
Настройки программы : cabac=1 / ref=1 / deblock=1:-1:-1 / analyse=0x3:0 / me=hex / subme=5 / psy=0 / mixed_ref=0 / me_range=16 / chroma_me=1 / trellis=0 / 8x8dct=1 / cqm=0 / deadzone=21,11 / fast_pskip=1 / chroma_qp_offset=0 / threads=3 / lookahead_threads=1 / sliced_threads=0 / nr=0 / decimate=1 / interlaced=0 / bluray_compat=0 / constrained_intra=0 / bframes=2 / b_pyramid=0 / b_adapt=1 / b_bias=0 / direct=1 / weightb=1 / open_gop=0 / weightp=0 / keyint=24 / keyint_min=13 / scenecut=40 / intra_refresh=0 / rc=abr / mbtree=0 / bitrate=3456 / ratetol=1.0 / qcomp=0.60 / qpmin=0 / qpmax=69 / qpstep=4 / ip_ratio=1.40 / pb_ratio=1.30 / aq=1:1.00
Default : Да
Forced : Нет
Основные цвета : BT.709
Характеристики трансфера : BT.709
Коэффициенты матрицы : BT.709
Аудио
Идентификатор : 2
Формат : AC-3
Формат/Информация : Audio Coding 3
Расширение режима : CM (complete main)
Параметр Endianness формата : Big
Идентификатор кодека : A_AC3
Продолжительность : 51 м.
Вид битрейта : Постоянный
Битрейт : 192 Кбит/сек
Каналы : 2 канала
Расположение каналов : Front: L R
Частота : 48,0 КГц
Битовая глубина : 16 бит
Метод сжатия : С потерями
Размер потока : 70,9 Мбайт (5%)
Default : Да
Forced : Нет
Скриншоты

Дополнительные скриншоты

Пожалуйста, не уходите с раздачи - помогите докачать другим. Если понравился релиз - жмите кнопку "Спасибо"!
[Профиль] [ЛС]
Кто просматривает тему:

Показать сообщения:    

Текущее время: Сегодня 02:44

Часовой пояс: GMT



Вы не можете начинать темы
Вы не можете отвечать на сообщения
Вы не можете редактировать свои сообщения
Вы не можете удалять свои сообщения
Вы не можете голосовать в опросах
Вы не можете прикреплять файлы к сообщениям
Вы не можете скачивать файлы