По небу босиком (2015) WEB-DLRip | iTunes

 
Автор Сообщение

BOSS ®

Пол:

Стаж: 2 года 1 месяц

Сообщений: 3719

Откуда: ODESSA



Награды: 20 (Подробнее)

Top Seeder 4 (Количество: 1) Top Seeder 5 (Количество: 1) Top Keeper 2 (Количество: 1)
Торрент-статистика

Создавать темы 27-Июл-2016 17:58

[Цитировать]

Информация о фильме
Оригинальное название: По небу босиком
Год выпуска: 2015
Жанр: Мелодрама, комедия
Выпущено: Россия, Storm Cinema
Режиссер: Султан Хажироко
В ролях: Алан Кокаев, Милана Карагулова, Султан Хажироко, Арсенуко Масаев, Валентин Камергоев, Роза Байзуллаева, Фатима Мамаева, Юсуп Омаров, Ефрем Амирамов, Сати Казанова, Вадим Мисостов, Олег Гусейнов, Лариса Кярова, Ахмет Хамурзов, Роман Крюков, Людмила Шереметова, Басир Шибзухов
О фильме:
Говорят, что случайностей в жизни не бывает, что все предопределено… быть может там на небе есть такое министерство… ну, в котором все за нас решают: что и когда с нами должно произойти». С этих слов начинается история, в которой судьба играет с главными героями, превращая близких людей, в совсем незнакомых, даря им любовь и тут же забирая ее назад, сменяет радость грустью, а дружбу предательством. Но какие бы сюрпризы не преподносила жизнь — танцуй, ведь ты так молод, люби, ведь ты так одинок.

Файл
Качество: WEB-DLRip
Видео: XviD build 73, 2071 Кбит/с, 720x400, 25 кадр/с, (Bits/Pixel*Frame 0.288)
Аудио: AC3, 2 ch, 192 Кбит/с
Продолжительность: 01:31:44
Язык: Русский
Озвучивание: - (iTunes)

МедиаИнфо

General
Complete name : Po.Nebu.Bosikom.2015.XviD.WEB-DLRip.by.GeneralFilm.avi
Format : AVI
Format/Info : Audio Video Interleave
File size : 1.46 GiB
Duration : 1h 31mn
Overall bit rate : 2 273 Kbps
Writing application : VirtualDubMod 1.5.10.3 | www.virtualdub-fr.org || (build 2550/release)
Writing library : VirtualDubMod build 2550/release
Video
ID : 0
Format : MPEG-4 Visual
Format profile : Advanced Simple@L5
Format settings, BVOP : 1
Format settings, QPel : No
Format settings, GMC : No warppoints
Format settings, Matrix : Custom
Codec ID : XVID
Codec ID/Hint : XviD
Duration : 1h 31mn
Bit rate : 2 071 Kbps
Width : 720 pixels
Height : 400 pixels
Display aspect ratio : 16:9
Frame rate : 25.000 fps
Color space : YUV
Chroma subsampling : 4:2:0
Bit depth : 8 bits
Scan type : Progressive
Compression mode : Lossy
Bits/(Pixel*Frame) : 0.288
Stream size : 1.33 GiB (91%)
Writing library : XviD 73
Audio
ID : 1
Format : AC-3
Format/Info : Audio Coding 3
Mode extension : CM (complete main)
Format settings, Endianness : Big
Codec ID : 2000
Duration : 1h 31mn
Bit rate mode : Constant
Bit rate : 192 Kbps
Channel(s) : 2 channels
Channel positions : Front: L R
Sampling rate : 48.0 KHz
Frame rate : 31.250 fps (1536 spf)
Compression mode : Lossy
Stream size : 126 MiB (8%)
Alignment : Split accross interleaves
Interleave, duration : 40 ms (1.00 video frame)
Interleave, preload duratio : 500 ms

Скриншоты




[Профиль] [ЛС]
Кто просматривает тему:

Показать сообщения:    

Текущее время: Сегодня 04:49

Часовой пояс: GMT



Вы не можете начинать темы
Вы не можете отвечать на сообщения
Вы не можете редактировать свои сообщения
Вы не можете удалять свои сообщения
Вы не можете голосовать в опросах
Вы не можете прикреплять файлы к сообщениям
Вы не можете скачивать файлы