По волчьим законам / Animal Kingdom (Дэвид Мишо / David Michod) [2010, Австралия, риллер, драма, криминал, BDRip-AVC] MVO (R5) + Sub Rus + Original Eng

 
Автор Сообщение

reversefile ®

Пол:

Стаж: 4 года 5 месяцев

Сообщений: 842

Откуда: ReverseFile.org



Награды: Нет

Торрент-статистика

Создавать темы 13-Авг-2014 10:02

[Цитировать]

По волчьим законам
Animal Kingdom

Страна: Австралия
Жанр: триллер, драма, криминал
Год выпуска: 2010
Продолжительность: 01:53:11
Перевод: Профессиональный (многоголосый закадровый) R5
Cубтитры: русские, английские
Оригинальная аудиодорожка: английский
Режиссер: Дэвид Мишо / David Michod
В ролях: Бен Мендельсон, Джеймс Фрешвилл, Гай Пирс, Джоэл Эдгертон, Джеки Уивер, Люк Форд, Салливан Степлтон, Дэниэл Уилли, Энтони Хэйес, Мирра Фолкс
Описание: Криминальная драма о войне подпольных группировок Мельбурна и полиции. В центре истории семнадцатилетний парень Джошуа из преступной семьи, которого пытается спасти от опасностей мира криминала детектив Леки. Джошуа предстоит выбрать свое место в царстве зверей и понять, что для выживания ему необходимо действовать по собственным правилам.

Сэмпл: http://sendfile.su/1010209
Качество видео: BDRip-AVC [BDRemux HDCLUB]
Формат видео: MKV
Видео: AVC, 1152 x 496 (2,35:1), 2849 kbps, 23,976 fps, 0.208 bpp
Аудио: 48 kHz, AC3 Dolby Digital, 3/2 (L,C,R,l,r) + LFE ch, ~448 kbps, 16 bit
Аудио 2: 48 kHz, AC3 Dolby Digital, 3/2 (L,C,R,l,r) + LFE ch, ~448 kbps, 16 bit
Формат субтитров: softsub (SRT)

MediaInfo

Уникальный идентификатор : 193829826639393192947229215041200258258 (0x91D24448067C6C49960B95F083D6FCD2)
Полное имя : F:\Films\Animal\AVC\Animal_kkv77 AVC.mkv
Формат : Matroska
Версия формата : Version 2
Размер файла : 2,96 Гбайт
Продолжительность : 1 ч. 53 м.
Общий поток : 3739 Кбит/сек
Дата кодирования : UTC 2014-08-10 15:50:15
Программа кодирования : mkvmerge v6.9.1 ('Blue Panther') 32bit built on Apr 18 2014 18:15:44
Библиотека кодирования : libebml v1.3.0 + libmatroska v1.4.1
Видео
Идентификатор : 1
Формат : AVC
Формат/Информация : Advanced Video Codec
Профиль формата : High@L4.1
Параметр CABAC формата : Да
Параметр ReFrames формата : 8 кадров
Идентификатор кодека : V_MPEG4/ISO/AVC
Продолжительность : 1 ч. 53 м.
Битрейт : 2849 Кбит/сек
Ширина : 1152 пикселя
Высота : 496 пикселей
Соотношение сторон : 2,35:1
Режим частоты кадров : Постоянный
Частота кадров : 23,976 кадра/сек
Цветовое пространство : YUV
Субдискретизация насыщенности : 4:2:0
Битовая глубина : 8 бит
Тип развёртки : Прогрессивная
Бит/(Пиксели*Кадры) : 0.208
Размер потока : 2,19 Гбайт (74%)
Библиотека кодирования : x264 core 138 r2358 9e941d1
Настройки программы : cabac=1 / ref=8 / deblock=1:-2:-1 / analyse=0x3:0x133 / me=umh / subme=9 / psy=1 / psy_rd=1.00:0.05 / mixed_ref=0 / me_range=32 / chroma_me=1 / trellis=2 / 8x8dct=1 / cqm=0 / deadzone=21,11 / fast_pskip=0 / chroma_qp_offset=-3 / threads=4 / lookahead_threads=1 / sliced_threads=0 / nr=0 / decimate=0 / interlaced=0 / bluray_compat=0 / constrained_intra=0 / bframes=12 / b_pyramid=2 / b_adapt=2 / b_bias=0 / direct=1 / weightb=1 / open_gop=0 / weightp=2 / keyint=240 / keyint_min=23 / scenecut=40 / intra_refresh=0 / rc=2pass / mbtree=0 / bitrate=2849 / ratetol=1.0 / qcomp=0.60 / qpmin=10 / qpmax=69 / qpstep=4 / cplxblur=20.0 / qblur=0.5 / ip_ratio=1.40 / pb_ratio=1.30 / aq=1:1.00
Язык : English
Default : Да
Forced : Нет
Аудио #1
Идентификатор : 2
Формат : AC-3
Формат/Информация : Audio Coding 3
Расширение режима : CM (complete main)
Параметр Endianness формата : Big
Идентификатор кодека : A_AC3
Продолжительность : 1 ч. 53 м.
Вид битрейта : Постоянный
Битрейт : 448 Кбит/сек
Каналы : 6 каналов
Расположение каналов : Front: L C R, Side: L R, LFE
Частота : 48,0 КГц
Битовая глубина : 16 бит
Метод сжатия : С потерями
Размер потока : 363 Мбайт (12%)
Заголовок : Профессиональный (многоголосый закадровый) R5
Язык : Russian
Default : Да
Forced : Нет
Аудио #2
Идентификатор : 3
Формат : AC-3
Формат/Информация : Audio Coding 3
Расширение режима : CM (complete main)
Параметр Endianness формата : Big
Идентификатор кодека : A_AC3
Продолжительность : 1 ч. 53 м.
Вид битрейта : Постоянный
Битрейт : 448 Кбит/сек
Каналы : 6 каналов
Расположение каналов : Front: L C R, Side: L R, LFE
Частота : 48,0 КГц
Битовая глубина : 16 бит
Метод сжатия : С потерями
Размер потока : 363 Мбайт (12%)
Заголовок : английский
Язык : English
Default : Нет
Forced : Нет
Текст #1
Идентификатор : 4
Формат : UTF-8
Идентификатор кодека : S_TEXT/UTF8
Идентификатор кодека/Информация : UTF-8 Plain Text
Заголовок : русские
Язык : Russian
Default : Нет
Forced : Нет
Текст #2
Идентификатор : 5
Формат : UTF-8
Идентификатор кодека : S_TEXT/UTF8
Идентификатор кодека/Информация : UTF-8 Plain Text
Заголовок : английские
Язык : English
Default : Нет
Forced : Нет
Меню
00:00:00.000 : en:00:00:00.000
00:05:57.482 : en:00:05:57.482
00:13:03.657 : en:00:13:03.657
00:21:11.228 : en:00:21:11.228
00:29:32.312 : en:00:29:32.312
00:34:48.503 : en:00:34:48.503
00:41:37.203 : en:00:41:37.203
00:49:29.967 : en:00:49:29.967
00:58:14.991 : en:00:58:14.991
01:03:50.535 : en:01:03:50.535
01:08:58.884 : en:01:08:58.884
01:15:42.037 : en:01:15:42.037
01:24:50.835 : en:01:24:50.835
01:32:47.228 : en:01:32:47.228
01:37:56.620 : en:01:37:56.620
01:46:03.315 : en:01:46:03.315

Скриншот c названием фильма

Скриншоты

Возрастные ограничения

16+ : зрителям, достигшим 16 лет
Рейтинг МРАА: лицам до 17 лет обязательно присутствие взрослого

Награды и номинации

2010Большой приз жюри кинофестиваля Сандэнс в категории «мировое кино — драма»
20109 премий Австралийского киноинститута: лучший фильм (Лиз Уоттс), лучший режиссер (Дэвид Мишо), лучший оригинальный сценарий (Дэвид Мишо), лучший актер (Бен Мендельсон), лучшая актриса (Джеки Уивер), лучший актер второго плана (Джоэл Эджертон), лучший монтаж (Люк Дулан), лучшая оригинальная музыка (Сэм Петти, Энтони Партос), приз читателей News Limited (Лиз Уоттс)
2010премия Национального совета кинокритиков США за лучшую женскую роль второго плана (Джеки Уивер)
2010приз за лучший сценарий Стокгольмского кинофестиваля (Дэвид Мишо)
2011номинация на премию «Оскар» за лучшую женскую роль второго плана (Джеки Уивер)
2011номинация на премию «Сатурн» за лучшую женскую роль второго плана (Джеки Уивер)
2011номинация на премию «Золотой глобус» за лучшую женскую роль второго плана (Джеки Уивер)
2011номинация на Премию британского независимого кино за лучший зарубежный независимый фильм
[Профиль] [ЛС]

Создавать темы 06-Авг-2015 23:19 (спустя 11 месяцев 24 дня)

Топик был перенесен из форума Фильмы до 2014 года в форум Фильмы до 2012 года
sergej644
 

Создавать темы 12-Июн-2016 07:54 (спустя 1 год 9 месяцев)

Топик был перенесен из форума Фильмы 2011 года в форум Фильмы 2010 года
Russian Mafia
 
Кто просматривает тему:

Показать сообщения:    

Текущее время: Сегодня 04:22

Часовой пояс: GMT



Вы не можете начинать темы
Вы не можете отвечать на сообщения
Вы не можете редактировать свои сообщения
Вы не можете удалять свои сообщения
Вы не можете голосовать в опросах
Вы не можете прикреплять файлы к сообщениям
Вы не можете скачивать файлы