Появление / The Appearing (Дэрик Гейтс / Daric Gates) [2014, США, ужасы, триллер, детектив, WEB-DLRip] DVO (DeadSno & den904)

 
Автор Сообщение

Создавать темы 13-Июл-2014 16:36

Появление / The Appearing
Страна: США
Жанр: ужасы, триллер, детектив
Год выпуска: 2014
Продолжительность: 01:31:31
Перевод: Любительский (двухголосый закадровый) DeadSno & den904
Cубтитры: нет
Оригинальная аудиодорожка: нет
Режиссер: Дэрик Гейтс / Daric Gates
В ролях: Уилл Уоллес, Дин Кэйн, Дон Суэйзи, Куинтон Аарон, Эмили Брукс, Вольфганг Бодисон, Конрой Кантер, Эбигейл Купер, Крис Дескинс, Том Калоччи
Описание: Детектив Майкл переезжает со своей женой Рэйчел, после её нервного срыва из-за внезапной смерти их маленькой дочери, из центра в небольшой и очень странный городок. Майкл устраивается на работу в офис шерифа, рассчитывая передохнуть от рабочей суеты в тихом месте. Однако, в первый день работы, его просят исследовать таинственное исчезновение девочки-подростка.
Сэмпл: http://multi-up.com/983801
Качество видео: WEB-DLRip
Формат видео: AVI
Видео: Xvid 720x304 23.98fps 1 737 Kbps
Аудио: Dolby AC3 48000Hz 6ch 384kbps

MediaInfo

Format : AVI
Format/Info : Audio Video Interleave
File size : 1.36 GiB
Duration : 1h 31mn
Overall bit rate : 2 130 Kbps
Writing application : VirtualDubMod 1.5.10.3 | www.virtualdub-fr.org || (build 2550/release)
Writing library : VirtualDubMod build 2550/release
Video
ID : 0
Format : MPEG-4 Visual
Format profile : Advanced Simple@L5
Format settings, BVOP : Yes
Format settings, QPel : No
Format settings, GMC : No warppoints
Format settings, Matrix : Custom
Codec ID : XVID
Codec ID/Hint : XviD
Duration : 1h 31mn
Bit rate : 1 737 Kbps
Width : 720 pixels
Height : 304 pixels
Display aspect ratio : 2.35:1
Frame rate : 23.976 fps
Resolution : 8 bits
Colorimetry : 4:2:0
Scan type : Progressive
Bits/(Pixel*Frame) : 0.331
Stream size : 1.11 GiB (82%)
Writing library : XviD 73
Audio
ID : 1
Format : AC-3
Format/Info : Audio Coding 3
Codec ID : 2000
Duration : 1h 31mn
Bit rate mode : Constant
Bit rate : 384 Kbps
Channel(s) : 6 channels
Channel positions : Front: L C R, Surround: L R, LFE
Sampling rate : 48.0 KHz
Stream size : 251 MiB (18%)
Alignment : Split accross interleaves
Interleave, duration : 42 ms (1.00 video frame)
Interleave, preload duration : 500 ms

Скриншот c названием фильма

Скриншоты

 
Показать сообщения:    

Текущее время: Сегодня 11:56

Часовой пояс: GMT



Вы не можете начинать темы
Вы не можете отвечать на сообщения
Вы не можете редактировать свои сообщения
Вы не можете удалять свои сообщения
Вы не можете голосовать в опросах
Вы не можете прикреплять файлы к сообщениям
Вы не можете скачивать файлы