Появление / The Appearing (Дэрик Гейтс / Daric Gates) [2014, США, ужасы, триллер, детектив, HDRip] DVO (DeadSno & den904)

 
Автор Сообщение

Создавать темы 13-Июл-2014 16:35

Появление / The Appearing
Страна: США
Жанр: ужасы, триллер, детектив
Год выпуска: 2014
Продолжительность: 01:31:31
Перевод: Любительский (двухголосый закадровый) DeadSno & den904
Cубтитры: нет
Режиссер: Дэрик Гейтс / Daric Gates
В ролях: Уилл Уоллес, Дин Кэйн, Дон Суэйзи, Куинтон Аарон, Эмили Брукс, Вольфганг Бодисон, Конрой Кантер, Эбигейл Купер, Крис Дескинс, Том Калоччи
Описание: Детектив Майкл переезжает со своей женой Рэйчел, после её нервного срыва из-за внезапной смерти их маленькой дочери, из центра в небольшой и очень странный городок. Майкл устраивается на работу в офис шерифа, рассчитывая передохнуть от рабочей суеты в тихом месте. Однако, в первый день работы, его просят исследовать таинственное исчезновение девочки-подростка.
Сэмпл: http://multi-up.com/984341
Качество видео: HDRip The Appearing [2014] HDRip XViD juggs
Формат видео: AVI
Видео: XviD, 928 Kbps, 640 х 272 pixels, 23.976 fps
Аудио: MP3, 128 Kbps, 2 channels, 48.0 KHz

MediaInfo

General
Complete name : D:\kirovtorrent\The.Appearing.2014.HDRip.700Mb.avi
Format : AVI
Format/Info : Audio Video Interleave
File size : 698 MiB
Duration : 1h 31mn
Overall bit rate : 1 066 Kbps
Writing application : VirtualDubMod 1.5.10.3 | www.virtualdub-fr.org || (build 2550/release)
Writing library : VirtualDubMod build 2550/release
Video
ID : 0
Format : MPEG-4 Visual
Format profile : Advanced Simple@L5
Format settings, BVOP : Yes
Format settings, QPel : No
Format settings, GMC : No warppoints
Format settings, Matrix : Default (H.263)
Codec ID : XVID
Codec ID/Hint : XviD
Duration : 1h 31mn
Bit rate : 928 Kbps
Width : 640 pixels
Height : 272 pixels
Display aspect ratio : 2.35:1
Frame rate : 23.976 fps
Color space : YUV
Chroma subsampling : 4:2:0
Bit depth : 8 bits
Scan type : Progressive
Compression mode : Lossy
Bits/(Pixel*Frame) : 0.222
Stream size : 608 MiB (87%)
Writing library : XviD 64
Audio
ID : 1
Format : MPEG Audio
Format version : Version 1
Format profile : Layer 3
Codec ID : 55
Codec ID/Hint : MP3
Duration : 1h 31mn
Bit rate mode : Constant
Bit rate : 128 Kbps
Channel(s) : 2 channels
Sampling rate : 48.0 KHz
Compression mode : Lossy
Stream size : 83.8 MiB (12%)
Alignment : Aligned on interleaves
Interleave, duration : 42 ms (1.00 video frame)
Interleave, preload duration : 504 ms
Writing library : LAME3.99r
Encoding settings : -m s -V 4 -q 2 -lowpass 17 -b 128

Скриншот c названием фильма

Скриншоты

 
Показать сообщения:    

Текущее время: Сегодня 09:59

Часовой пояс: GMT



Вы не можете начинать темы
Вы не можете отвечать на сообщения
Вы не можете редактировать свои сообщения
Вы не можете удалять свои сообщения
Вы не можете голосовать в опросах
Вы не можете прикреплять файлы к сообщениям
Вы не можете скачивать файлы