Почти семнадцать / The Edge of Seventeen (2016) BDRip 1080p | Лицензия

 
Автор Сообщение

BOSS ®

Пол:

Стаж: 3 года 2 месяца

Сообщений: 8630

Откуда: ODESSA



Награды: 22 (Подробнее)

Top Keeper 4 (Количество: 1) Mega Releaser 1 (Количество: 1) Top Seeder 3 (Количество: 1)
Торрент-статистика

Создавать темы 29-Июл-2017 07:36

[Цитировать]

Информация о фильме
Название: Почти семнадцать
Оригинальное название: The Edge of Seventeen
Год выхода: 2016
Жанр: драма, комедия
Режиссер: Келли Фрэмон
В ролях: Хейли Стайнфелд, Хейли Лу Ричардсон, Блейк Дженнер, Кира Седжвик, Вуди Харрельсон, Хейден Сзето, Александр Кэлверт, Эрик Кинлисайд, Неста Купер, Дэниэл Бэйкон
О фильме:
С самого детства Надин считала, что её старшему брату всё даётся легко и просто, а сама она росла врединой и даже не могла завести друзей в начальной школе. Но однажды девочка Криста захотела дружить с ней, и они стали лучшими подругами. В свои 17 лет Надин всё так же ненавидит брата, и когда Криста начинает с ним встречаться, мир переворачивается с ног на голову.

Страна: США
Продолжительность: 01:45:20
Перевод: Профессиональный (многоголосый закадровый) Blu-ray EUR
Рип от BBW!
Файл
Формат: MKV
Видео: 1920x1038 at 23.976 fps, MPEG-4 AVC, ~15.1 Mbps avg
Aудио#1: Russian: 48 kHz, AC3, 3/2 (L,C,R,l,r) + LFE ch, ~640.00 kbps avg
Aудио#2: English: 48 kHz, DTS, 3/2 (L,C,R,l,r) + LFE ch, ~1509.00 kbps avg
Субтитры: Русские, украинские, английские
Сохранены оригинальные главы как на Blu-ray.
Релиз от:

MediaInfo

General
Unique ID : 253590226492101592808691237380794638789 (0xBEC7B37A031D9F3D891DA0CE545C61C5)
Complete name : The.Edge.of.Seventeen.2016.1080p.BluRay.Rus.Eng.mkv
Format : Matroska
Format version : Version 2
File size : 12.9 GiB
Duration : 1 h 45 min
Overall bit rate : 17.6 Mb/s
Movie name : The Edge of Seventeen (2016) - Release for HDCLUB
Encoded date : UTC 2017-07-28 18:53:10
Writing application : mkvmerge v3.4.0 ('Rapunzel') built on May 15 2010 09:38:20
Writing library : libebml v0.8.0 + libmatroska v0.9.0
Video
ID : 1
Format : AVC
Format/Info : Advanced Video Codec
Format profile : High@L4.1
Format settings, CABAC : Yes
Format settings, ReFrames : 4 frames
Codec ID : V_MPEG4/ISO/AVC
Duration : 1 h 45 min
Bit rate : 15.1 Mb/s
Width : 1 920 pixels
Height : 1 038 pixels
Display aspect ratio : 1.85:1
Frame rate mode : Constant
Frame rate : 23.976 (24000/1001) FPS
Color space : YUV
Chroma subsampling : 4:2:0
Bit depth : 8 bits
Scan type : Progressive
Bits/(Pixel*Frame) : 0.315
Stream size : 11.1 GiB (86%)
Title : The Edge of Seventeen (2016) - Release for HDCLUB
Writing library : x264 core 148 r2744+55 950084e t_mod_Custom [8-bit@all X86_64]
Encoding settings : cabac=1 / ref=4 / deblock=1:-3:-3 / analyse=0x3:0x133 / me=umh / subme=10 / psy=1 / fade_compensate=0.00 / psy_rd=1.00:0.00 / mixed_ref=1 / me_range=32 / chroma_me=1 / trellis=2 / 8x8dct=1 / cqm=0 / deadzone=21,11 / fast_pskip=0 / chroma_qp_offset=-2 / threads=12 / lookahead_threads=3 / sliced_threads=0 / nr=0 / decimate=1 / interlaced=0 / bluray_compat=0 / constrained_intra=0 / fgo=0 / bframes=12 / b_pyramid=2 / b_adapt=2 / b_bias=0 / direct=3 / weightb=1 / open_gop=0 / weightp=2 / keyint=250 / keyint_min=23 / scenecut=40 / intra_refresh=0 / rc=crf / mbtree=0 / crf=18.0000 / qcomp=0.65 / qpmin=0:0:0 / qpmax=69:69:69 / qpstep=4 / ip_ratio=1.30 / pb_ratio=1.18 / aq=3:0.85 / aq-sensitivity=10.00 / aq-factor=1.00:1.00:1.00 / aq2=0 / aq3=0 / zones=597,1030,crf=16/12159,12191,crf=16/12273,12299,crf=16/12367,12638,crf=16/12689,12779,crf=16/12872,12976,crf=16/13072,13094,crf=16/13637,14258,crf=16.5/43899,44274,crf=16/44400,45374,crf=16/45688,46194,crf=16/64231,64292,crf=16/64253,64385,crf=16/64544,64593,crf=16/64717,64769,crf=16/64910,64963,crf=16/65015,65054,crf=16/65185,65225,crf=16/65274,65330,crf=16/65377,65462,crf=16/105417,105906,crf=16/108162,108329,crf=16/108495,108562,crf=16/108686,108736,crf=16/109223,109342,crf=16.1/109401,109436,crf=16/109492,109590,crf=16/109681,109738,crf=16/109797,110055,crf=16/110105,110426,crf=16/110595,110680,crf=16/110709,110970,crf=16/111031,111707,crf=16/111834,111872,crf=16/113289,113404,crf=16/113591,113689,crf=16/114449,114518,crf=16.2/114950,115038,crf=16/115120,115220,crf=16/116678,116863,crf=16/142325,150941,crf=23
Language : English
Default : Yes
Forced : No
Audio #1
ID : 2
Format : AC-3
Format/Info : Audio Coding 3
Format settings, Endianness : Big
Codec ID : A_AC3
Duration : 1 h 45 min
Bit rate mode : Constant
Bit rate : 640 kb/s
Channel(s) : 6 channels
Channel positions : Front: L C R, Side: L R, LFE
Sampling rate : 48.0 kHz
Frame rate : 31.250 FPS (1536 spf)
Bit depth : 16 bits
Compression mode : Lossy
Stream size : 482 MiB (4%)
Title : AC3 5.1 @ 640 kbps - DUB, Blu-ray EUR
Language : Russian
Service kind : Complete Main
Default : Yes
Forced : No
Audio #2
ID : 3
Format : DTS
Format/Info : Digital Theater Systems
Mode : 16
Format settings, Endianness : Big
Codec ID : A_DTS
Duration : 1 h 45 min
Bit rate mode : Constant
Bit rate : 1 509 kb/s
Channel(s) : 6 channels
Channel positions : Front: L C R, Side: L R, LFE
Sampling rate : 48.0 kHz
Frame rate : 93.750 FPS (512 spf)
Bit depth : 24 bits
Compression mode : Lossy
Stream size : 1.11 GiB (9%)
Title : DTS 5.1 @ 1536 kbps
Language : English
Default : No
Forced : No
Text #1
ID : 4
Format : UTF-8
Codec ID : S_TEXT/UTF8
Codec ID/Info : UTF-8 Plain Text
Title : Forced, iTunes
Language : Russian
Default : Yes
Forced : No
Text #2
ID : 5
Format : UTF-8
Codec ID : S_TEXT/UTF8
Codec ID/Info : UTF-8 Plain Text
Title : iTunes
Language : Russian
Default : No
Forced : No
Text #3
ID : 6
Format : UTF-8
Codec ID : S_TEXT/UTF8
Codec ID/Info : UTF-8 Plain Text
Title : iTunes
Language : Ukrainian
Default : No
Forced : No
Text #4
ID : 7
Format : UTF-8
Codec ID : S_TEXT/UTF8
Codec ID/Info : UTF-8 Plain Text
Title : iTunes
Language : English
Default : No
Forced : No
Menu
00:00:00.000 : en:00:00:00.000
00:03:47.018 : en:00:03:47.018
00:07:41.419 : en:00:07:41.419
00:10:02.644 : en:00:10:02.644
00:18:46.292 : en:00:18:46.292
00:23:21.483 : en:00:23:21.483
00:26:42.434 : en:00:26:42.434
00:32:06.716 : en:00:32:06.716
00:36:51.501 : en:00:36:51.501
00:43:17.553 : en:00:43:17.553
00:48:21.190 : en:00:48:21.190
00:53:15.192 : en:00:53:15.192
01:00:29.918 : en:01:00:29.918
01:07:55.321 : en:01:07:55.321
01:12:46.988 : en:01:12:46.988
01:14:56.617 : en:01:14:56.617
01:21:48.779 : en:01:21:48.779
01:26:20.300 : en:01:26:20.300
01:30:59.162 : en:01:30:59.162
01:38:58.057 : en:01:38:58.057
[Профиль] [ЛС]
Показать сообщения:    

Текущее время: Сегодня 12:37

Часовой пояс: GMT



Вы не можете начинать темы
Вы не можете отвечать на сообщения
Вы не можете редактировать свои сообщения
Вы не можете удалять свои сообщения
Вы не можете голосовать в опросах
Вы не можете прикреплять файлы к сообщениям
Вы не можете скачивать файлы