Почти семнадцать / The Edge of Seventeen (2016) BDRip 1080p от HDReactor | Лицензия

 
Автор Сообщение

BOSS ®

Пол:

Стаж: 3 года

Сообщений: 7616

Откуда: ODESSA



Награды: 22 (Подробнее)

Top Keeper 4 (Количество: 1) Mega Seeder 3 (Количество: 1) Top Keeper 1 (Количество: 1)
Торрент-статистика

Создавать темы 29-Июл-2017 07:19

[Цитировать]

Информация о фильме
Название: Почти семнадцать
Оригинальное название: The Edge of Seventeen
Год выпуска: 2016
Жанр: Драма, комедия
Выпущено: США, Gracie Films, The Robert Simonds Company
Режиссер: Келли Фрэмон
В ролях: Хейли Стайнфелд, Хейли Лу Ричардсон, Блейк Дженнер, Кира Седжвик, Вуди Харрельсон, Хейден Сзето, Александр Кэлверт, Эрик Кинлисайд, Неста Купер, Дэниэл Бэйкон
О фильме: С самого детства Надин считала, что её старшему брату всё даётся легко и просто, а сама она росла врединой и даже не могла завести друзей в начальной школе. Но однажды девочка Криста захотела дружить с ней, и они стали лучшими подругами. В свои 17 лет Надин всё так же ненавидит брата, и когда Криста начинает с ним встречаться, мир переворачивается с ног на голову.

Продолжительность: 01:44:55
Перевод: Профессиональный многоголосый
Субтитры: Русские, английские
Файл
Качество: BDRip (1080p)
Видео: MPEG-4 AVC, 9.5 Мбит/с, 1920x1038
Аудио#1: Русский (AC3, 6 ch, 640 Кбит/с)
Аудио#2: Английский (AC3, 6 ch, 448 Кбит/с)

МедиаИнфо

Формат : Matroska
Версия формата : Version 2
Размер файла : 7,76 Гбайт
Продолжительность : 1 ч. 45 м.
Общий поток : 10,5 Мбит/сек
Название фильма : ~V ad~
Дата кодирования : UTC 2017-07-29 02:14:05
Программа кодирования : mkvmerge v6.5.0 ('Isn't she lovely') built on Oct 20 2013 12:50:05
Библиотека кодирования : libebml v1.3.0 + libmatroska v1.4.1
Обложка : Yes
Attachments : cover.jpg
Видео
Идентификатор : 1
Формат : AVC
Формат/Информация : Advanced Video Codec
Профиль формата : High@L4.1
Параметр CABAC формата : Да
Параметр ReFrames формата : 4 кадра
Идентификатор кодека : V_MPEG4/ISO/AVC
Продолжительность : 1 ч. 45 м.
Битрейт : 9500 Кбит/сек
Ширина : 1920 пикселей
Высота : 1038 пикселей
Соотношение сторон : 1,85:1
Режим частоты кадров : Постоянный
Частота кадров : 23,976 (24000/1001) кадра/сек
Цветовое пространство : YUV
Субдискретизация насыщенности : 4:2:0
Битовая глубина : 8 бит
Тип развёртки : Прогрессивная
Бит/(Пиксели*Кадры) : 0.199
Размер потока : 6,80 Гбайт (88%)
Библиотека кодирования : x264 core 148 r2744 b97ae06
Настройки программы : cabac=1 / ref=4 / deblock=1:-3:-3 / analyse=0x3:0x133 / me=umh / subme=11 / psy=1 / psy_rd=1.00:0.00 / mixed_ref=1 / me_range=32 / chroma_me=1 / trellis=2 / 8x8dct=1 / cqm=0 / deadzone=21,11 / fast_pskip=0 / chroma_qp_offset=-2 / threads=12 / lookahead_threads=1 / sliced_threads=0 / nr=0 / decimate=0 / interlaced=0 / bluray_compat=0 / constrained_intra=0 / bframes=10 / b_pyramid=2 / b_adapt=2 / b_bias=0 / direct=3 / weightb=1 / open_gop=0 / weightp=2 / keyint=240 / keyint_min=23 / scenecut=40 / intra_refresh=0 / rc=2pass / mbtree=0 / bitrate=9500 / ratetol=1.0 / qcomp=0.60 / qpmin=0 / qpmax=69 / qpstep=4 / cplxblur=20.0 / qblur=0.5 / ip_ratio=1.30 / pb_ratio=1.26 / aq=3:1.00
Язык : Английский
Default : Да
Forced : Нет
Аудио #1
Идентификатор : 2
Формат : AC-3
Формат/Информация : Audio Coding 3
Параметр Endianness формата : Big
Идентификатор кодека : A_AC3
Продолжительность : 1 ч. 45 м.
Вид битрейта : Постоянный
Битрейт : 640 Кбит/сек
Каналы : 6 каналов
Расположение каналов : Front: L C R, Side: L R, LFE
Частота : 48,0 КГц
Частота кадров : 31,250 кадров/сек (1536 spf)
Битовая глубина : 16 бит
Метод сжатия : С потерями
Размер потока : 482 Мбайт (6%)
Язык : Русский
Default : Да
Forced : Нет
Аудио #2
Идентификатор : 3
Формат : AC-3
Формат/Информация : Audio Coding 3
Параметр Endianness формата : Big
Идентификатор кодека : A_AC3
Продолжительность : 1 ч. 45 м.
Вид битрейта : Постоянный
Битрейт : 448 Кбит/сек
Каналы : 6 каналов
Расположение каналов : Front: L C R, Side: L R, LFE
Частота : 48,0 КГц
Частота кадров : 31,250 кадров/сек (1536 spf)
Битовая глубина : 16 бит
Метод сжатия : С потерями
Размер потока : 338 Мбайт (4%)
Заголовок : 448
Язык : Английский
Default : Нет
Forced : Нет
Текст #1
Идентификатор : 4
Формат : UTF-8
Идентификатор кодека : S_TEXT/UTF8
Идентификатор кодека/Информация : UTF-8 Plain Text
Заголовок : Forced
Язык : Русский
Default : Да
Forced : Нет
Текст #2
Идентификатор : 5
Формат : UTF-8
Идентификатор кодека : S_TEXT/UTF8
Идентификатор кодека/Информация : UTF-8 Plain Text
Заголовок : Full
Язык : Русский
Default : Нет
Forced : Нет
Текст #3
Идентификатор : 6
Формат : UTF-8
Идентификатор кодека : S_TEXT/UTF8
Идентификатор кодека/Информация : UTF-8 Plain Text
Заголовок : Full
Язык : Английский
Default : Нет
Forced : Нет
Меню
00:00:00.000 : en:Chapter 01
00:03:47.018 : en:Chapter 02
00:07:41.419 : en:Chapter 03
00:10:02.643 : en:Chapter 04
00:18:46.291 : en:Chapter 05
00:23:21.483 : en:Chapter 06
00:26:42.434 : en:Chapter 07
00:32:06.716 : en:Chapter 08
00:36:51.500 : en:Chapter 09
00:43:17.553 : en:Chapter 10
00:48:21.189 : en:Chapter 11
00:53:15.192 : en:Chapter 12
01:00:29.917 : en:Chapter 13
01:07:55.321 : en:Chapter 14
01:12:46.987 : en:Chapter 15
01:14:56.617 : en:Chapter 16
01:21:48.778 : en:Chapter 17
01:26:20.300 : en:Chapter 18
01:30:59.162 : en:Chapter 19
01:38:58.182 : en:Chapter 20




Сэмпл
Релиз от:
[Профиль] [ЛС]
Показать сообщения:    

Текущее время: Сегодня 19:03

Часовой пояс: GMT



Вы не можете начинать темы
Вы не можете отвечать на сообщения
Вы не можете редактировать свои сообщения
Вы не можете удалять свои сообщения
Вы не можете голосовать в опросах
Вы не можете прикреплять файлы к сообщениям
Вы не можете скачивать файлы