Почти герои / Almost Heroes (1998) WEB-DL 720p | D, P, A

 
Автор Сообщение

Russian Mafia ®

Пол:

Стаж: 1 год 8 месяцев

Сообщений: 4257



Награды: 10 (Подробнее)

Mega Seeder 5 (Количество: 1) Mega Seeder 2 (Количество: 1) Mega Seeder 3 (Количество: 1)
Торрент-статистика

Создавать темы 30-Июл-2016 13:03

[Цитировать]

Информация о фильме
Название: Почти герои
Оригинальное название: Almost Heroes
Год выхода: 1998
Жанр: комедия, приключения, вестерн
Режиссер: Кристофер Гест
В ролях: Крис Фарли, Мэттью Перри, Боким Вудбайн, Бэрри Дель Шерман, Роберт Титтор, Франклин Ковер, Дэвид Пэкер, Юджин Леви, Лиза Барбуша, Кристиан Клименсон
О фильме:
В 1794 году по поручению президента США состоялась экспедиция на Дикий Запад, в последствии названная экспедицией Льюиса и Кларка. Однако мало кто знает, что немногим ранее состоялась другая экспедиция по тому же маршруту.
Группа веселых дебоширов и бедолаг, невзирая на невероятные препятствия и козни врагов, достигла американских берегов Тихого океана и даже пошла немного далее.

Страна: США
Студия: DiNovi Pictures, Turner Pictures (I)
Продолжительность: 01:30:19
Перевод: Профессиональный (дублированный) Варус Видео + Профессиональный (многоголосый, закадровый) НТВ+ + Авторский (одноголосый, закадровый) Н.Антонов + Авторский (одноголосый, закадровый) А.Кашкин
Файл
Формат: Matroska
Видео: 1278x720 at 23.976 fps, MPEG-4 AVC, ~4200 kbps avg
Аудио#1: Russian: 48 kHz, AC3 Dolby Digital, 2/0 (L,R) ch, ~224.00 kbps avg |Дубляж, Варус Видео|
Аудио#2: Russian: 48 kHz, AC3 Dolby Digital, 2/0 (L,R) ch, ~192.00 kbps avg |Многоголосый закадровый, НТВ+|
Аудио#3: Russian: 48 kHz, AC3 Dolby Digital, 1/0 (C) ch, ~192.00 kbps avg |Авторский, Н.Антонов|
Аудио#4: Russian: 48 kHz, AC3 Dolby Digital, 2/0 (L,R) ch, ~192.00 kbps avg |Авторский, А.Кашкин|
Аудио#5: English: 48 kHz, AC3 Dolby Digital, 3/2 (L,C,R,l,r) + LFE ch, ~448.00 kbps avg
Субтитры: English
***Сохранены оригинальные главы.
***Релиз - Dreven.

MI

Общее
Уникальный идентификатор : 222451327721364573830871303831978172403 (0xA75A913C0FF0A7798AE992B41AD6DFF3)
Полное имя : Almost Heroes. WEB-DL 720p.mkv
Формат : Matroska
Версия формата : Version 4 / Version 2
Размер файла : 3,48 Гбайт
Продолжительность : 1 ч. 30 м.
Общий поток : 5518 Кбит/сек
Дата кодирования : UTC 2016-07-30 04:47:26
Программа кодирования : mkvmerge v9.3.1 ('Mask Machine') 64bit
Библиотека кодирования : libebml v1.3.4 + libmatroska v1.4.5
Видео
Идентификатор : 1
Формат : AVC
Формат/Информация : Advanced Video Codec
Профиль формата : High@L3.1
Параметр CABAC формата : Нет
Параметр ReFrames формата : 2 кадра
Параметр GOP формата : N=1
Идентификатор кодека : V_MPEG4/ISO/AVC
Продолжительность : 1 ч. 30 м.
Битрейт : 4160 Кбит/сек
Ширина : 1278 пикселей
Высота : 720 пикселей
Соотношение сторон : 16:9
Режим частоты кадров : Постоянный
Частота кадров : 23,976 кадра/сек
Цветовое пространство : YUV
Субдискретизация насыщенности : 4:2:0
Битовая глубина : 8 бит
Тип развёртки : Прогрессивная
Бит/(Пиксели*Кадры) : 0.189
Размер потока : 2,63 Гбайт (75%)
Язык : English
Default : Да
Forced : Нет
Цветовой диапазон : Limited
Основные цвета : BT.709
Характеристики трансфера : BT.709
Коэффициенты матрицы : BT.709
Аудио #1
Идентификатор : 2
Формат : AC-3
Формат/Информация : Audio Coding 3
Расширение режима : CM (complete main)
Параметр Endianness формата : Big
Идентификатор кодека : A_AC3
Продолжительность : 1 ч. 30 м.
Вид битрейта : Постоянный
Битрейт : 224 Кбит/сек
Каналы : 2 канала
Расположение каналов : Front: L R
Частота : 48,0 КГц
Метод сжатия : С потерями
Размер потока : 145 Мбайт (4%)
Заголовок : Варус Видео
Язык : Russian
Default : Да
Forced : Нет
Аудио #2
Идентификатор : 3
Формат : AC-3
Формат/Информация : Audio Coding 3
Расширение режима : CM (complete main)
Параметр Endianness формата : Big
Идентификатор кодека : A_AC3
Продолжительность : 1 ч. 30 м.
Вид битрейта : Постоянный
Битрейт : 192 Кбит/сек
Каналы : 2 канала
Расположение каналов : Front: L R
Частота : 48,0 КГц
Метод сжатия : С потерями
Размер потока : 124 Мбайт (3%)
Заголовок : НТВ+
Язык : Russian
Default : Нет
Forced : Нет
Аудио #3
Идентификатор : 4
Формат : AC-3
Формат/Информация : Audio Coding 3
Расширение режима : CM (complete main)
Параметр Endianness формата : Big
Идентификатор кодека : A_AC3
Продолжительность : 1 ч. 30 м.
Вид битрейта : Постоянный
Битрейт : 192 Кбит/сек
Каналы : 1 канал
Расположение каналов : Front: C
Частота : 48,0 КГц
Метод сжатия : С потерями
Размер потока : 124 Мбайт (3%)
Заголовок : Николай Антонов
Язык : Russian
Default : Нет
Forced : Нет
Аудио #4
Идентификатор : 5
Формат : AC-3
Формат/Информация : Audio Coding 3
Расширение режима : CM (complete main)
Параметр Endianness формата : Big
Идентификатор кодека : A_AC3
Продолжительность : 1 ч. 30 м.
Вид битрейта : Постоянный
Битрейт : 192 Кбит/сек
Каналы : 2 канала
Расположение каналов : Front: L R
Частота : 48,0 КГц
Метод сжатия : С потерями
Размер потока : 124 Мбайт (3%)
Заголовок : Александр Кашкин
Язык : Russian
Default : Нет
Forced : Нет
Аудио #5
Идентификатор : 6
Формат : AC-3
Формат/Информация : Audio Coding 3
Расширение режима : CM (complete main)
Параметр Endianness формата : Big
Идентификатор кодека : A_AC3
Продолжительность : 1 ч. 30 м.
Вид битрейта : Постоянный
Битрейт : 448 Кбит/сек
Каналы : 6 каналов
Расположение каналов : Front: L C R, Side: L R, LFE
Частота : 48,0 КГц
Метод сжатия : С потерями
Размер потока : 290 Мбайт (8%)
Язык : English
Default : Нет
Forced : Нет
Текст
Идентификатор : 7
Формат : UTF-8
Идентификатор кодека : S_TEXT/UTF8
Идентификатор кодека/Информация : UTF-8 Plain Text
Язык : English
Default : Нет
Forced : Нет
Меню
00:00:00.000 : en:Chapter 1
00:02:29.000 : en:Chapter 2
00:05:39.000 : en:Chapter 3
00:10:20.000 : en:Chapter 4
00:15:03.000 : en:Chapter 5
00:21:53.000 : en:Chapter 6
00:26:03.000 : en:Chapter 7
00:33:25.000 : en:Chapter 8
00:37:04.000 : en:Chapter 9
00:41:29.000 : en:Chapter 10
00:49:48.000 : en:Chapter 11
00:52:18.000 : en:Chapter 12
01:01:20.000 : en:Chapter 13
01:03:57.000 : en:Chapter 14
01:06:31.000 : en:Chapter 15
01:11:16.000 : en:Chapter 16
01:17:03.000 : en:Chapter 17
01:19:44.000 : en:Chapter 18
01:23:58.000 : en:Chapter 19
01:26:21.000 : en:Chapter 20

Скриншоты

[Профиль] [ЛС]
Показать сообщения:    

Текущее время: Сегодня 14:57

Часовой пояс: GMT



Вы не можете начинать темы
Вы не можете отвечать на сообщения
Вы не можете редактировать свои сообщения
Вы не можете удалять свои сообщения
Вы не можете голосовать в опросах
Вы не можете прикреплять файлы к сообщениям
Вы не можете скачивать файлы