Почему мы ездим на мотоциклах / Why We Ride (2013) BDRip 1080p | P1

 
Автор Сообщение

BOSS ®

Пол:

Стаж: 3 года 9 месяцев

Сообщений: 11123

Откуда: ODESSA



Награды: 22 (Подробнее)

Top Keeper 2 (Количество: 1) Top Releaser 5 (Количество: 1) Mega Seeder 1 (Количество: 1)
Торрент-статистика

Создавать темы 16-Май-2018 15:50

[Цитировать]

Информация о фильме
Название: Почему мы ездим на мотоциклах
Оригинальное название: Why We Ride
Год выхода: 2013
Жанр: документальный, семейный, история, спорт
Режиссер: Брайан Х. Кэрролл
В ролях: Bo Landers, Stoney Landers, Troy Lee, Johnny McClure, Coe Meyer, Zachary Ness, John Saylors, Johnnie Saylors, Scout Swing, Jay Allen, Butch Baer
О фильме:
Фильм «Почему мы ездим на мотоциклах» (Why We Ride) – история о людях с желанием мечтать, открывать и исследовать. Искать жизнь вне рядовой повседневности и разделять такие моменты вместе с друзьями. Это история о путешествии, а не о пункте назначения. Мотоциклы – основные вехи жизни этих людей. От сбывшейся мечты ребенка к пенсионеру, вырвавшемуся на свободу. Это история о страсти мотогонщиков и душах их машин. Ваши чувства обострятся, сердце станет биться быстрее, ваш разум станет уносить вас вперед. Как только мотоцикл войдет в вашу жизнь, уверяют авторы фильма «Почему мы ездим на мотоциклах», это изменит вас навсегда.

Страна: США
Студия: Gnarlynow Entertainment, Walking West Entertainment
Продолжительность: 01:28:57
Перевод: Студийный одноголосый - Киностудия "ПЕРСОНАЖ"
Файл
Кодек: x.264
Качество: BDRip 1080p
Видео: MPEG-4 AVC, 1920x1040, ~9045 Kбит/с, 23.976 кадр/с
Звук:
Аудио #1: Русский ( АС3, 2ch, 224 Кбит/с, 48.0 KHz) Студийный (одноголосый, закадровый) Киностудия "ПЕРСОНАЖ"
Аудио #2: Английский ( АС3, 6ch, 448 Кбит/с, 48.0 KHz)

MediaInfo

Источник: Why.We.Ride.2013.1080p.BluRay.x264-ROVERS
General
Unique ID : 197951609738381004371524066264480307820 (0x94EC17E0C553E0A7809299E66A895A6C)
Complete name : C:Program Files (x86)DownloadsWhy.We.Ride.2013.BDRip.1080p.mkv
Format : Matroska
Format version : Version 4 / Version 2
File size : 6.03 GiB
Duration : 1 h 28 min
Overall bit rate : 9 708 kb/s
Encoded date : UTC 2018-05-15 14:13:09
Writing application : mkvmerge v7.1.0 ('Good Love') 64bit built on Jul 27 2014 13:06:55
Writing library : libebml v1.3.0 + libmatroska v1.4.1
Video
ID : 1
Format : AVC
Format/Info : Advanced Video Codec
Format profile : High@L4.1
Format settings : CABAC / 4 Ref Frames
Format settings, CABAC : Yes
Format settings, ReFrames : 4 frames
Codec ID : V_MPEG4/ISO/AVC
Duration : 1 h 28 min
Bit rate : 9 045 kb/s
Width : 1 920 pixels
Height : 1 040 pixels
Display aspect ratio : 1.85:1
Frame rate mode : Constant
Frame rate : 23.976 FPS
Color space : YUV
Chroma subsampling : 4:2:0
Bit depth : 8 bits
Scan type : Progressive
Bits/(Pixel*Frame) : 0.189
Stream size : 5.61 GiB (93%)
Writing library : x264 core 148 r2744 b97ae06
Encoding settings : cabac=1 / ref=4 / deblock=1:0:0 / analyse=0x3:0x133 / me=umh / subme=7 / psy=1 / psy_rd=1.00:0.00 / mixed_ref=1 / me_range=16 / chroma_me=1 / trellis=1 / 8x8dct=1 / cqm=0 / deadzone=21,11 / fast_pskip=0 / chroma_qp_offset=-2 / threads=12 / lookahead_threads=2 / sliced_threads=0 / nr=0 / decimate=1 / interlaced=0 / bluray_compat=0 / constrained_intra=0 / bframes=3 / b_pyramid=2 / b_adapt=1 / b_bias=0 / direct=1 / weightb=1 / open_gop=0 / weightp=2 / keyint=250 / keyint_min=23 / scenecut=40 / intra_refresh=0 / rc_lookahead=40 / rc=2pass / mbtree=1 / bitrate=9045 / ratetol=1.0 / qcomp=0.60 / qpmin=0 / qpmax=69 / qpstep=4 / cplxblur=20.0 / qblur=0.5 / ip_ratio=1.40 / aq=1:1.00
Language : English
Default : Yes
Forced : No
Audio #1
ID : 2
Format : AC-3
Format/Info : Audio Coding 3
Codec ID : A_AC3
Duration : 1 h 28 min
Bit rate mode : Constant
Bit rate : 224 kb/s
Channel(s) : 2 channels
Channel positions : Front: L R
Sampling rate : 48.0 kHz
Frame rate : 31.250 FPS (1536 SPF)
Bit depth : 16 bits
Compression mode : Lossy
Stream size : 142 MiB (2%)
Language : Russian
Service kind : Complete Main
Default : Yes
Forced : No
Audio #2
ID : 3
Format : AC-3
Format/Info : Audio Coding 3
Codec ID : A_AC3
Duration : 1 h 28 min
Bit rate mode : Constant
Bit rate : 448 kb/s
Channel(s) : 6 channels
Channel positions : Front: L C R, Side: L R, LFE
Sampling rate : 48.0 kHz
Frame rate : 31.250 FPS (1536 SPF)
Bit depth : 16 bits
Compression mode : Lossy
Stream size : 285 MiB (5%)
Language : English
Service kind : Complete Main
Default : No
Forced : No
Menu
00:00:00.000 : en:00:00:00.000
00:05:00.008 : en:00:05:00.008
00:10:00.016 : en:00:10:00.016
00:14:59.982 : en:00:14:59.982
00:19:59.990 : en:00:19:59.990
00:25:00.040 : en:00:25:00.040
00:30:00.048 : en:00:30:00.048
00:35:00.056 : en:00:35:00.056
00:40:00.023 : en:00:40:00.023
00:45:00.031 : en:00:45:00.031
00:50:00.080 : en:00:50:00.080
00:55:00.088 : en:00:55:00.088
01:00:00.097 : en:01:00:00.097
01:05:00.063 : en:01:05:00.063
01:10:00.071 : en:01:10:00.071
01:15:00.121 : en:01:15:00.121
01:20:00.129 : en:01:20:00.129
01:25:00.137 : en:01:25:00.137
[Профиль] [ЛС]
Показать сообщения:    

Текущее время: Сегодня 15:41

Часовой пояс: GMT



Вы не можете начинать темы
Вы не можете отвечать на сообщения
Вы не можете редактировать свои сообщения
Вы не можете удалять свои сообщения
Вы не можете голосовать в опросах
Вы не можете прикреплять файлы к сообщениям
Вы не можете скачивать файлы